Login
Username:
Password:
[Signup]
[Recover Account]


Browse Torrents

Poll


You must be logged in to view polls



Latest Torrents
A Quiet Place (201...
- [Size: 433.59 MB]

Jurassic World Fal...
- [Size: 1.10 GB]

Jimmy.Fallon.2018....
- [Size: 579.91 MB]

MasterChef.Austral...
- [Size: 575.72 MB]

Seth.Meyers.2018.0...
- [Size: 581.71 MB]


Torrent Details For "Bodyguards.Secret.Lives.From.The.Watchtower.2016.WEBRip.x264-RARBG"

Bodyguards.Secret.Lives.From.The.Watchtower.2016.WEBRip.x264-RARBG

Download this torrent | Magnet Download
Health:
Seeds: 0
Leechers: 0
Completed:
Last Checked: 16-07-2018 03:00:41
External Torrent
Update Stats


Watch-Free-HD     Download

Poster


iMDB
Imdb Picture Title: Bodyguards: Secret Lives from the Watchtower
Year: 2016
Runtime: 90 minutes
Votes: 87
Rating: 8.5/10
Language: English
Country: Canada, South Africa, USA, UK
All Genres: Documentary
Plot Outline: Explore the secret world of the bodyguards who risk their lives to protect the rich, famous and powerful.
Director: Jaren Hayman
Writing By: Jaren Hayman,
Produced By: Jeremy Bieber,Jaren Hayman,Anders Hedberg,Francis Porter,Burton Rice,
Music: Young Wolf Hatchlings
Plot:

Bodyguards & Protection Agents are the individuals on the front lines for the rich, famous, and powerful. These individuals deal with violence, stalkers, isolation, and potential loss of life every single day. Our film explores the lives of bodyguards; a world most people know nothing about. Showcasing Nelson Mandela's Bodyguards, Justin Bieber and his Director of Security, Whitey Bulger's Protector, 50 Cent & Lil Wayne's Bodyguard, and Ambassador's under Blackwater.

Explore the secret world of the bodyguards who risk their lives to protect the rich, famous and powerful.


Cast:
Mikey Arana as Himself
Justin Bieber as Himself
Shamir Bolivar as Himself
Scooter Braun as Himself
Kim Coates as Narrator
Tairon Coronel as Himself
Jacquie Davis as Herself
Anton Kalaydjian as Himself
Zelda La Grange as Herself
Rory Steyn as Himself


Watch-Free-HD     Download

Details
Name:Bodyguards.Secret.Lives.From.The.Watchtower.2016.WEBRip.x264-RARBG
Description:
MediaInfo

Video
ID                                       : 1
Format                                   : AVC
Format/Info                              : Advanced Video Codec
Format profile                           : [email protected]
Format settings, CABAC                   : Yes
Format settings, ReFrames                : 5 frames
Codec ID                                 : avc1
Codec ID/Info                            : Advanced Video Coding
Duration                                 : 1 h 31 min
Bit rate                                 : 1 100 kb/s
Width                                    : 720 pixels
Height                                   : 400 pixels
Display aspect ratio                     : 16:9
Frame rate mode                          : Constant
Frame rate                               : 23.976 (23976/1000) FPS
Color space                              : YUV
Chroma subsampling                       : 4:2:0
Bit depth                                : 8 bits
Scan type                                : Progressive
Bits/(Pixel*Frame)                       : 0.159
Stream size                              : 713 MiB (89%)
Title                                    : RARBG.COM - Bodyguards.Secret.Lives.From.The.Watchtower.2016.WEBRip.x264-RARBG
Writing library                          : x264 core 148 r2638M 7599210
Encoding settings                        : cabac=1 / ref=5 / deblock=1:-1:-1 / analyse=0x3:0x113 / me=umh / subme=9 / psy=1 / psy_rd=1.00:0.15 / mixed_ref=1 / me_range=16 / chroma_me=1 / trellis=2 / 8x8dct=1 / cqm=0 / deadzone=21,11 / fast_pskip=1 / chroma_qp_offset=-3 / threads=12 / lookahead_threads=1 / sliced_threads=0 / nr=0 / decimate=1 / interlaced=0 / bluray_compat=0 / constrained_intra=0 / bframes=3 / b_pyramid=2 / b_adapt=2 / b_bias=0 / direct=3 / weightb=1 / open_gop=0 / weightp=2 / keyint=250 / keyint_min=23 / scenecut=40 / intra_refresh=0 / rc_lookahead=50 / rc=abr / mbtree=1 / bitrate=1100 / ratetol=1.0 / qcomp=0.60 / qpmin=0 / qpmax=69 / qpstep=4 / ip_ratio=1.40 / aq=1:1.00
Encoded date                             : UTC 2017-05-03 22:57:20
Tagged date                              : UTC 2017-05-03 22:57:20

Audio
ID                                       : 2
Format                                   : AAC
Format/Info                              : Advanced Audio Codec
Format profile                           : LC
Codec ID                                 : 40
Duration                                 : 1 h 31 min
Bit rate mode                            : Constant
Bit rate                                 : 128 kb/s
Channel(s)                               : 2 channels
Channel positions                        : Front: L R
Sampling rate                            : 48.0 kHz
Frame rate                               : 46.875 FPS (1024 spf)
Compression mode                         : Lossy
Stream size                              : 84.0 MiB (10%)
Title                                    : RARBG.COM - Bodyguards.Secret.Lives.From.The.Watchtower.2016.WEBRip.x264-RARBG
Language                                 : English
Default                                  : Yes
Alternate group                          : 1
Encoded date                             : UTC 2017-05-03 22:57:20
Tagged date                              : UTC 2017-05-03 22:57:20

 
 
 
 
Category:Movies > WEB-HD
Lang:English  English
Total Size:801.93 MB
Info Hash:8eb5797066331028848b4ec39602018cfcf193d5
Added By:Unknown
Date Added:03-05-2017 23:23:29
Downloads:110

Download Torrent

Ratings:Not Yet Rated (Log in to rate it)


Tracker:
http://tracker.trackerfix.com:80/announce


File List: 


Comments

No comments still posted

Powered by 10 Hamsters v2-svn -|- Page Generated In 0.036816 secs.
-|- RSS Feed -|- Feed Info
Theme By: Nikkbu