Login
Username:
Password:
[Signup]
[Recover Account]


Browse Torrents

Poll


You must be logged in to view polls



Latest Torrents
Skyscraper 2018 x2...
- [Size: 423.27 MB]

[18+] Karenjit Kau...
- [Size: 2.37 GB]

Robot.Chicken.S09E...
- [Size: 89.67 MB]

The Honey Killer 2...
- [Size: 1.35 GB]

Single AF 2018 108...
- [Size: 923.20 MB]


Torrent Details For "Hotel.Transylvania.2012.720p.BluRay.x264.Dual.Audio.{Hindi.DD.2.0-Eng}-maverick"

Hotel.Transylvania.2012.720p.BluRay.x264.Dual.Audio.{Hindi.DD.2.0-Eng}-maverick

Download this torrent | Magnet Download
Health:
Seeds: 0
Leechers: 10
Completed: 304 
Last Checked: 30-11-2017 15:23:15
External Torrent
Update Stats


Watch-Free-HD     Download

Poster


iMDB
Imdb Picture Title: Hotel Transylvania
Year: 2012
Runtime: 91 minutes
Votes: 175885
Rating: 7.1/10
Language: English
Country: USA
All Genres: Animation, Comedy, Family, Fantasy
Plot Outline: Dracula, who operates a high-end resort away from the human world, goes into overprotective mode when a boy discovers the resort and falls for the count's teen-aged daughter.
Tagline: Where monsters go to get away from it all
Director: Genndy Tartakovsky
Writing By: Peter Baynham,Robert Smigel,Todd Durham,Dan Hageman,Kevin Hageman,
Produced By: Lydia Bottegoni,Michelle Murdocca,Adam Sandler,Robert Smigel,
Music: Mark Mothersbaugh
Plot:

In 1895, Dracula builds a resort in Transylvania, hidden from the humans, to raise his beloved daughter Mavis in a safe environment. In the present, the place is the Hotel Transylvania, where monsters bring their families to vacation far from the frightening humans. Dracula invites his friends - Frankenstein and his wife Eunice; Wayne and Wanda, the werewolves; Griffin, the invisible man; Murray, the mummy; Bigfoot, among others - to celebrate the 118th birthday of Mavis. When the party is ready to start, the 21-year-old Jonathan is walking through the forest and stumbles upon the hotel. Dracula sees Jonathan and disguises him as a monster to hide Jonathan from the guests. But Mavis also sees Jonathan and Dracula forces him to pose as a monster. Soon Mavis believes that Jonathan is the "zing" of her life despite the advice of her father about humans.

- Written by Claudio Carvalho, Rio de Janeiro, Brazil

Welcome to the Hotel Transylvania, Dracula's lavish five-stake resort, where monsters and their families can live it up, free to be the monsters they are without humans to bother them. On one special weekend, Dracula has invited some of the world's most famous monsters - Frankenstein and his wife, the Mummy, the Invisible Man, a family of werewolves, and more - to celebrate his daughter Mavis' 118th birthday. For Drac, catering to all of these legendary monsters is no problem - but his world could come crashing down when a human stumbles on the hotel for the first time and takes a shine to Mavis.

- Written by Anonymous

Dracula, who operates a high-end resort away from the human world, goes into overprotective mode when a boy discovers the resort and falls for the count's teen-aged daughter.

- Written by Anonymous
Cast:
Adam Sandler as Dracula
Andy Samberg as Jonathan
Selena Gomez as Mavis
Kevin James as Frankenstein
Fran Drescher as Eunice
Steve Buscemi as Wayne
Molly Shannon as Wanda
David Spade as Griffin
CeeLo Green as Murray
Jon Lovitz as Quasimodo
Trailers:
No. 2
No. 1


Watch-Free-HD     Download

Details
Name:Hotel.Transylvania.2012.720p.BluRay.x264.Dual.Audio.{Hindi.DD.2.0-Eng}-maverick
Description:
General
Complete name                            : Hotel.Transylvania.2012.720p.{Hindi.DD.2.0-Eng}-maverick [Exclusive].mkv
Format                                   : Matroska
Format version                           : Version 4 / Version 2
File size                                : 1.09 GiB
Duration                                 : 1h 31mn
Overall bit rate                         : 1 709 Kbps
Encoded date                             : UTC 2017-05-07 09:14:55
Writing application                      : mkvmerge v8.6.1 ('Flying') 64bit
Writing library                          : libebml v1.3.3 + libmatroska v1.4.4

Video
ID                                       : 1
Format                                   : AVC
Format/Info                              : Advanced Video Codec
Format profile                           : [email protected]
Format settings, CABAC                   : Yes
Format settings, ReFrames                : 5 frames
Codec ID                                 : V_MPEG4/ISO/AVC
Duration                                 : 1h 31mn
Bit rate                                 : 1 294 Kbps
Width                                    : 1 280 pixels
Height                                   : 694 pixels
Display aspect ratio                     : 1.85:1
Frame rate mode                          : Constant
Frame rate                               : 23.976 (24000/1001) fps
Color space                              : YUV
Chroma subsampling                       : 4:2:0
Bit depth                                : 8 bits
Scan type                                : Progressive
Bits/(Pixel*Frame)                       : 0.061
Stream size                              : 847 MiB (76%)
Writing library                          : x264 core 148 r2579 73ae2d1
Language                                 : English
Default                                  : Yes
Forced                                   : No

Audio #1
ID                                       : 2
Format                                   : AC-3
Format/Info                              : Audio Coding 3
Format profile                           : Dolby Digital
Mode extension                           : CM (complete main)
Format settings, Endianness              : Big
Codec ID                                 : A_AC3
Duration                                 : 1h 31mn
Bit rate mode                            : Constant
Bit rate                                 : 224 Kbps
Channel(s)                               : 2 channels
Channel positions                        : Front: L R
Sampling rate                            : 48.0 KHz
Frame rate                               : 31.250 fps (1536 spf)
Compression mode                         : Lossy
Stream size                              : 147 MiB (13%)
Title                                    : Hindi DTH 2.0
Language                                 : Hindi
Default                                  : Yes
Forced                                   : No

Audio #2
ID                                       : 3
Format                                   : AAC
Format/Info                              : Advanced Audio Codec
Format profile                           : LC
Codec ID                                 : A_AAC
Duration                                 : 1h 31mn
Bit rate                                 : 192 Kbps
Channel(s)                               : 6 channels
Channel positions                        : Front: L C R, Side: L R, LFE
Sampling rate                            : 48.0 KHz
Frame rate                               : 46.875 fps (1024 spf)
Compression mode                         : Lossy
Delay relative to video                  : 9ms
Stream size                              : 124 MiB (11%)
Language                                 : English
Default                                  : No
Forced                                   : No

Text
ID                                       : 4
Format                                   : UTF-8
Codec ID                                 : S_TEXT/UTF8
Codec ID/Info                            : UTF-8 Plain Text
Duration                                 : 1h 24mn
Bit rate                                 : 64 bps
Count of elements                        : 1288
Stream size                              : 40.1 KiB (0%)
Language                                 : English
Default                                  : No
Forced                                   : No


Category:Movies > 720P Bluray
Lang:English  English
Total Size:1.11 GB
Info Hash:bd6048edf1b8f5d2ef67c29d27368e931149a114
Added By:SULTAN
Date Added:07-05-2017 14:14:09
Downloads:165

Download Torrent

Ratings:Not Yet Rated (Log in to rate it)


Tracker:
udp://p4p.arenabg.ch:1337/announce


File List: 


Comments

No comments still posted

Powered by 10 Hamsters v2-svn -|- Page Generated In 1.382846 secs.
-|- RSS Feed -|- Feed Info
Theme By: Nikkbu