Login
Username:
Password:
[Signup]
[Recover Account]


Browse Torrents

Poll


You must be logged in to view polls



Latest Torrents
Lockdown S01 Ep1 a...
- [Size: 777.01 MB]

Mysteries.at.the.M...
- [Size: 1.30 GB]

Woman.Walks.Ahead....
- [Size: 595.67 MB]

Mission Impossible...
- [Size: 1.18 GB]

Lara Croft Tomb Ra...
- [Size: 3.59 GB]


Torrent Details For "Teshan 2016 [Punjabi] 1080p Web-HD AVC AAC Esub - Hon3y [Exclusive]"

Teshan 2016 [Punjabi] 1080p Web-HD AVC AAC Esub - Hon3y [Exclusive]

Download this torrent | Magnet Download
Health:
Seeds: 0
Leechers: 12
Completed:
Last Checked: 07-11-2017 06:58:26
External Torrent
Update Stats



Poster


iMDB
Imdb Picture Title: Teshan
Year: 2016
Runtime: 136 minutes
Votes: 15
Rating: 5.9/10
Language: Panjabi
Country: India
All Genres: Drama
Plot Outline: A man finds that what should be his happy ending is really a middling beginning.
Director: Sukhbir Singh
Writing By: Prince Kanwaljit Singh,
Produced By: Dharmbir Gurjar,Ashok Janghu,Dhaniram Tokas,
Music: Laddi Gill
Plot:

A man finds that what should be his happy ending is really a middling beginning.

- Written by Kiran Mascarenhas
Cast:
Karamjit Anmol as
Diljott as
Shavinder Mahal as
Happy Raikoti as
Prince Kanwaljit Singh as Chumbak
Yograj Singh as



Details
Name:Teshan 2016 [Punjabi] 1080p Web-HD AVC AAC Esub - Hon3y [Exclusive]
Description:
Teshan (2016) [Punjabi] 1080p Untouched Web-HD AVC AAC - Hon3yHD [Exclusive]



Format                      : Matroska
File size                   : 3.87 GiB
Duration                    : 2 h 14 min
Overall bit rate            : 4 121 kb/s

Video
ID                          : 1
Format                      : AVC
Format/Info                 : Advanced Video Codec
Format profile              : [email protected]
Format settings, CABAC      : No
Format settings, ReFrames   : 1 frame
Codec ID                    : V_MPEG4/ISO/AVC
Duration                    : 2 h 14 min
Bit rate                    : 3 992 kb/s
Width                       : 1 920 pixels
Height                      : 806 pixels
Display aspect ratio        : 2.40:1
Frame rate mode             : Constant
Frame rate                  : 24.000 FPS
Stream size                 : 3.75 GiB (97%)

Audio
ID                          : 2
Format                      : AAC
Format/Info                 : Advanced Audio Codec
Format profile              : LC
Codec ID                    : A_AAC
Duration                    : 2 h 14 min
Bit rate                    : 128 kb/s
Channel(s)                  : 2 channels
Channel positions           : Front: L R
Sampling rate               : 44.1 kHz
Frame rate                  : 43.066 FPS (1024 spf)
Stream size                 : 123 MiB (3%)


                     
Category:Movies > Punjabi
Lang:Punjabi
Total Size:3.87 GB
Info Hash:a8bec63726db810b28eac5fab9792e91d6ee2a44
Added By:Unknown
Date Added:19-05-2017 09:48:12
Downloads:292

Ratings:Not Yet Rated (Log in to rate it)


Tracker:
udp://tracker.coppersurfer.tk:6969/announce


File List: 


Comments

No comments still posted

Copyright 2018 Hon3yHD -|- Page Generated In 1.766618 secs.
-|- RSS Feed -|- Feed Info