Login
Username:
Password:
[Signup]
[Recover Account]


Browse Torrents

Poll


You must be logged in to view polls



Latest Torrents
Skyscraper 2018 x2...
- [Size: 423.27 MB]

[18+] Karenjit Kau...
- [Size: 2.37 GB]

Robot.Chicken.S09E...
- [Size: 89.67 MB]

The Honey Killer 2...
- [Size: 1.35 GB]

Single AF 2018 108...
- [Size: 923.20 MB]


Torrent Details For "Bol ( 2011 ) Pakistani 720p DVDRip x264 AAC { TaRa }.mkv"

Bol ( 2011 ) Pakistani 720p DVDRip x264 AAC { TaRa }.mkv

Download this torrent | Magnet Download
Health:
Seeds: 0
Leechers: 147
Completed:
Last Checked: 13-02-2018 06:18:32
External Torrent
Update Stats


Watch-Free-HD     Download

Poster


Watch-Free-HD     Download

Details
Name:Bol ( 2011 ) Pakistani 720p DVDRip x264 AAC { TaRa }.mkv
Description:

Bol ( 2011 ) Pakistani 720p DVDRip x264 AAC { TaRa }.mkv


Quote:

===================================================================
General
Complete name               : Bol ( 2011 ) Pakistani 720p DVDRip x264 AAC { TaRa }.mkv
Format                      : Matroska
Format version              : Version 4 / Version 2
File size                   : 1.35 GiB
Duration                    : 2 h 31 min
Overall bit rate mode       : Variable
Overall bit rate            : 1 276 kb/s
===================================================================
Video
ID                          : 1
Format                      : AVC
Format/Info                 : Advanced Video Codec
Format profile              : [email protected]
Format settings, CABAC      : Yes
Format settings, ReFrames   : 3 frames
Codec ID                    : V_MPEG4/ISO/AVC
Duration                    : 2 h 31 min
Bit rate mode               : Variable
Bit rate                    : 1 180 kb/s
Maximum bit rate            : 14.0 Mb/s
Width                       : 1 280 pixels
Height                      : 504 pixels
Display aspect ratio        : 2.540
Frame rate mode             : Constant
Frame rate                  : 23.976 (24000/1001) FPS
Color space                 : YUV
Chroma subsampling          : 4:2:0
Bit depth                   : 8 bits
Scan type                   : Progressive
Bits/(Pixel*Frame)          : 0.076
Stream size                 : 1.25 GiB (92%)
Title                       : .....::::: TaRa :::::.....
Language                    : Urdu
Default                     : Yes
Forced                      : No
===================================================================
Audio
ID                          : 2
Format                      : AAC
Format/Info                 : Advanced Audio Codec
Format profile              : LC
Codec ID                    : A_AAC
Duration                    : 2 h 31 min
Bit rate                    : 94.0 kb/s
Channel(s)                  : 2 channels
Channel positions           : Front: L R
Sampling rate               : 44.1 kHz
Frame rate                  : 43.066 FPS (1024 spf)
Compression mode            : Lossy
Stream size                 : 102 MiB (7%)
Title                       : .....::::: TaRa :::::.....
Language                    : Urdu
Default                     : Yes
Forced                      : No
===================================================================

































Category:Movies > Pakistani
Lang:Urdu
Total Size:1.35 GB
Info Hash:9deefc38a6c2eb50cb184ecb1d07d1a4454f33cc
Added By:SkTaRa
Date Added:31-03-2017 12:53:39
Downloads:475

Download Torrent

Ratings:rating: 3.5/5 (3.5 Out Of 5) 2 users have rated this torrent (Log in to rate it)

  


Tracker:
udp://tracker.openbittorrent.com:80/announce

This Torrent also has backup trackers
URLSeedersLeechersCompleted
http://www.skyts.net:6969/announce000
http://www.opentrackr.org/announce000
http://mgtracker.org:2710/announce050
http://5.79.83.193:2710/announce000
http://109.121.134.121:1337/announce000


File List: 


Comments

No comments still posted

Powered by 10 Hamsters v2-svn -|- Page Generated In 6.914835 secs.
-|- RSS Feed -|- Feed Info
Theme By: Nikkbu