Login
Username:
Password:
[Signup]
[Recover Account]


Browse Torrents

Poll


You must be logged in to view polls



Latest Torrents
Jurassic World Fal...
- [Size: 1.10 GB]

Jimmy.Fallon.2018....
- [Size: 579.91 MB]

MasterChef.Austral...
- [Size: 575.72 MB]

Seth.Meyers.2018.0...
- [Size: 581.71 MB]

Full.Frontal.With....
- [Size: 251.94 MB]


Torrent Details For "Mr.Perfect.2011.1080p.BluRay.x264.Multi-Audio[Telugu.DTS-HD.MA.5.1][Hindi-Tamil-Malayalam][DD.2..."

Mr.Perfect.2011.1080p.BluRay.x264.Multi-Audio[Telugu.DTS-HD.MA.5.1][Hindi-Tamil-Malayalam][DD.2...

Download this torrent | Magnet Download
Health:
Seeds: 0
Leechers: 29
Completed: 366 
Last Checked: 31-05-2018 13:27:37
External Torrent
Update Stats


Watch-Free-HD     Download

Poster


iMDB
Imdb Picture Title: Mr Perfect
Year: 2011
Runtime: 144 minutes
Votes: 2120
Rating: 7.1/10
Language: Telugu
Country: India
All Genres: Action, Drama, Romance
Plot Outline: Vicky (Prabhas), an expert in gaming software, lives in Australia and never compromises in his life, a principle he adheres to since his childhood. He believes that one should be oneself in...
Director: Dasaradh
Writing By: Dasaradh,Kishore Gopu,Bobby Kolli,Abburi Ravi,Prasad Rishi,
Produced By: Lakshman,Dil Raju,Sireesh,
Music: Devi Sri Prasad
Plot:

Vicky (Prabhas), an expert in gaming software, lives in Australia and never compromises in his life, a principle he adheres to since his childhood. He believes that one should be oneself in a relationship and one shouldn't change one's orientation for the sake of the partner. He also encourages his friends to follow his principle of life. But Vicky's principles and attitude leads to a clash of interestswith his father (Nassar), who constantly advises him to adjust his character for his and other's happiness but to no avail.Meanwhile in India, Vicky's parentsarrange a wedding alliancebetweenhim and Priya (Kajal Aggarwal), Vicky's childhood friend who is a doctor by profession. She and Vicky are poles apart; while Vicky is modern in his thinking and is not ready to compromise with his life, Priya is traditional and conservativeand is ready to compromise for thehappiness of others. Initially, Vicky and Priya do not get along well, andboth play practical jokes on one another. But later, on her father's (Murali Mohan) advice, Priya attempts to change her attitude towards Vicky. Soon Priya falls in love with Vicky and changes in many ways for him, such as giving up her love ofclassical danceas Vicky does not like it, eating non-vegetarian food and wearing modern dresses. Vicky too begins to fall in love with her and is ready to accept the wedding proposal until he finds out that Priya has compromised on her interests for his sake. He rejects the wedding proposal and returns to Australia.Back in Australia, Vicky is matched up through aCadburysurvey with Maggie (Taapsee), a free-spirited modern girl who shares his no-compromise attitude. Both of them meet at a mall and interestedin each other, begin to date and soon decide to get married. However, Maggie's father is none other than the MindGames head's brother, who is unwilling to let Vicky marry Maggie. After much persuasion from Vicky, Maggie's father agrees to let Vicky marry Maggie on the condition that he should stay in his house for 4 days for Maggie's sister's wedding and if Vicky manages to win over at least 2 relatives of Maggie, he can marry her and he would get a business in India else he should forget Maggie and leave the contract. But Vicky changes the condition that if at least 1 relative of Maggie does not get convinced that Vicky is the correct match for Maggie then he would forget Maggie and leave the contract, else he would marry Maggie and does not leave the contract.Soon, the relatives begin pouring infrom India and among them, to Vicky's shock, is Priya, who happens to be the groom's cousin. During the 4 days, with the help of Priya, he manages to win over the entire family. It is clear that Vicky is going to win Maggie's father's challenge. Priya leaves for India on the night before Vicky wins the challenge, heartbroken at the thought that Vicky is marrying someone else. Vicky receives a message Priya had recorded prior to him rejecting heron his mobile phone where she haddeclared her love for him. He gainsa change of heart on seeing this message and realises how much Priya had loved him and was willingto change for him, in spite of his faults. He also realises the need forcompromises in life. Vicky conveys his feelings to all the wedding guests present and decides not to marry Maggie. Maggie understands his feelings and accepts his decision.Vicky returns to India to win back Priya. After initially playing hard-to-get, Priya accepts Vicky's love and they live happily ever after


Cast:
Prabhas as Vicky
Kajal Aggarwal as Priya
Tapsee Pannu as Maggie
Raghu Babu as
Banerjee as
Master Bharath as
Brahmanandam as Jalsa Kishore
Mohan Duvvasi as
Satyadev Kancharana as
Murali Mohan as


Watch-Free-HD     Download

Details
Name:Mr.Perfect.2011.1080p.BluRay.x264.Multi-Audio[Telugu.DTS-HD.MA.5.1][Hindi-Tamil-Malayalam][DD.2...
Description:
Seeed Seeed Seeed Seeed.Plz Seed back after Download else don't Download  :thumbsdown:

Mr.Perfect.2011.1080p.BluRay.x264.Multi-Audio[Telugu.DTS-HD.MA.5.1][Hindi-Tamil-Malayalam][DD.2.0].-.Hon3y



Source Credits:  J4gg3r - Thanks bro

Audios Synched by: W3apoN-X(R3al_Star)

General
Format                      : Matroska
File size                   : 13.8 GiB
Duration                    : 2 h 26 min
Overall bit rate            : 13.6 Mb/s
Movie name                  : Hon3yHD

Video
Format                      : AVC
Format profile              : [email protected]
Format settings, CABAC      : Yes
Format settings, ReFrames   : 5 frames
Codec ID                    : V_MPEG4/ISO/AVC
Duration                    : 2 h 26 min
Bit rate                    : 10.3 Mb/s
Width                       : 1 920 pixels
Height                      : 820 pixels
Display aspect ratio        : 2.35:1
Frame rate mode             : Constant
Frame rate                  : 24.000 FPS
Color space                 : YUV
Chroma subsampling          : 4:2:0
Bit depth                   : 8 bits
Scan type                   : Progressive
Bits/(Pixel*Frame)          : 0.274
Stream size                 : 10.5 GiB (76%)
Title                       : W3apoN-X...Hon3yHD

Audio #1
Format                      : DTS
Format/Info                 : Digital Theater Systems
Format profile              : MA / Core
Mode                        : 16
Format settings, Endianness : Big
Codec ID                    : A_DTS
Duration                    : 2 h 26 min
Bit rate mode               : Variable / Constant
Bit rate                    : 2 245 kb/s / 1 509 kb/s
Channel(s)                  : 6 channels
Channel positions           : Front: L C R, Side: L R, LFE
Sampling rate               : 48.0 kHz
Frame rate                  : 93.750 FPS (512 spf)
Bit depth                   : 16 bits
Compression mode            : Lossless / Lossy
Stream size                 : 2.29 GiB (17%)
Title                       :  [Telugu] DTS-HD MA 5.1---W3apoN-X...Hon3yHD
Language                    : Telugu

Audio #2
Format                      : AC-3
Format/Info                 : Audio Coding 3
Format settings, Endianness : Big
Codec ID                    : A_AC3
Duration                    : 2 h 26 min
Bit rate mode               : Constant
Bit rate                    : 320 kb/s
Channel(s)                  : 2 channels
Channel positions           : Front: L R
Sampling rate               : 48.0 kHz
Frame rate                  : 31.250 FPS (1536 spf)
Bit depth                   : 16 bits
Compression mode            : Lossy
Stream size                 : 334 MiB (2%)
Title                       :  [Hindi] Dolby Digital 2.0 320 Kbps---W3apoN-X...Hon3yHD
Language                    : Hindi

Audio #3
Format                      : AC-3
Format/Info                 : Audio Coding 3
Format settings, Endianness : Big
Codec ID                    : A_AC3
Duration                    : 2 h 26 min
Bit rate mode               : Constant
Bit rate                    : 320 kb/s
Channel(s)                  : 2 channels
Channel positions           : Front: L R
Sampling rate               : 48.0 kHz
Frame rate                  : 31.250 FPS (1536 spf)
Bit depth                   : 16 bits
Compression mode            : Lossy
Stream size                 : 334 MiB (2%)
Title                       :  [Tamil] Dolby Digital 2.0 320 Kbps---W3apoN-X...Hon3yHD
Language                    : Tamil

Audio #4
Format                      : AC-3
Format/Info                 : Audio Coding 3
Format settings, Endianness : Big
Codec ID                    : A_AC3
Duration                    : 2 h 26 min
Bit rate mode               : Constant
Bit rate                    : 320 kb/s
Channel(s)                  : 2 channels
Channel positions           : Front: L R
Sampling rate               : 48.0 kHz
Frame rate                  : 31.250 FPS (1536 spf)
Bit depth                   : 16 bits
Compression mode            : Lossy
Stream size                 : 334 MiB (2%)
Title                       :  [Malayalam] Dolby Digital 2.0 320 Kbps---W3apoN-X...Hon3yHD
Language                    : Malayalam

Text #2
Format                      : PGS
Muxing mode                 : zlib
Codec ID                    : S_HDMV/PGS
Codec ID/Info               : Picture based subtitle format used on BDs/HD-DVDs
Duration                    : 2 h 24 min
Bit rate                    : 13.2 kb/s
Count of elements           : 2828
Stream size                 : 13.7 MiB (0%)
Title                       : English---W3apoN-X...Hon3yHD
Language                    : English

Menu
00:00:00.000                : :Chapter 01
00:05:24.000                : :Chapter 02
00:14:18.000                : :Chapter 03
00:18:27.000                : :Chapter 04
00:21:11.000                : :Chapter 05
00:27:04.000                : :Chapter 06
00:38:46.000                : :Chapter 07
00:42:21.000                : :Chapter 08
00:50:45.208                : :Chapter 09
00:56:23.416                : :Chapter 10
00:59:08.000                : :Chapter 11
01:07:53.000                : :Chapter 12
01:15:53.416                : :Chapter 13
01:28:28.000                : :Chapter 14
01:33:50.000                : :Chapter 15
01:44:15.416                : :Chapter 16
01:53:37.000                : :Chapter 17
02:04:28.000                : :Chapter 18
02:12:27.000                : :Chapter 19
02:17:46.000                : :Chapter 20


                                             
Category:Movies > Bollywood
Lang:Hindi
Total Size:13.84 GB
Info Hash:428c03785d8376f8b037f09364d4b59fc558ba11
Added By:Unknown
Date Added:27-05-2017 13:48:46
Downloads:489

Download Torrent

Ratings:Not Yet Rated (Log in to rate it)


Tracker:
udp://tracker.coppersurfer.tk:6969/announce


File List: 


Comments

<< Previous      Next >>
1 - 1

[Report] Posted: 27-05-2017 at 13:54:27
metrorest



Uploaded: 0.00 B
Downloaded: 0.00 B
Ratio: ---

1 GB KE AS-PASS UPLOAD KAR SAKTE HO !
THANKYOU  :)

1 - 1
<< Previous      Next >>


Powered by 10 Hamsters v2-svn -|- Page Generated In 3.323103 secs.
-|- RSS Feed -|- Feed Info
Theme By: Nikkbu