Login
Username:
Password:
[Signup]
[Recover Account]


Browse Torrents

Poll


You must be logged in to view polls



Latest Torrents
Ryuzo.and.His.Seve...
- [Size: 4.43 GB]

Black.Water.2018.B...
- [Size: 1.40 GB]

Kaalakaandi (2018)...
- [Size: 912.96 MB]

Lost.In.London.201...
- [Size: 1.44 GB]

Mad.to.Be.Normal.2...
- [Size: 1.40 GB]


Torrent Details For "Goodbye Christopher Robin 2017 1080p BluRay AC3 5.1 x264 ESub"

Goodbye Christopher Robin 2017 1080p BluRay AC3 5.1 x264 ESub

Download this torrent | Magnet Download
Health:
Seeds: 28
Leechers: 13
Completed: 24,970 
Last Checked: 03-05-2018 16:41:51
External Torrent
Update Stats


Watch-Free-HD     Download

Poster
No poster


Watch-Free-HD     Download

Details
Name:Goodbye Christopher Robin 2017 1080p BluRay AC3 5.1 x264 ESub
Description:

 


General
Format                      : Matroska
Format version              : Version 4 / Version 2
File size                   : 1.65 GiB
Duration                    : 1 h 47 min
Overall bit rate            : 2 213 kb/s

Video
ID                          : 1
Format                      : AVC
Format/Info                 : Advanced Video Codec
Format profile              : [email protected]
Format settings             : CABAC / 4 Ref Frames
Format settings, CABAC      : Yes
Format settings, ReFrames   : 4 frames
Codec ID                    : V_MPEG4/ISO/AVC
Duration                    : 1 h 47 min
Bit rate                    : 2 000 kb/s
Width                       : 1 920 pixels
Height                      : 1 036 pixels
Display aspect ratio        : 1.85:1
Frame rate mode             : Constant
Frame rate                  : 23.976 (24000/1001) FPS
Color space                 : YUV
Chroma subsampling          : 4:2:0
Bit depth                   : 8 bits
Scan type                   : Progressive
Bits/(Pixel*Frame)          : 0.042
Stream size                 : 1.45 GiB (88%)
Writing library             : x264 core 148 r2708 86b7198
Default                     : Yes
Forced                      : No

Audio
ID                          : 2
Format                      : AC-3
Format/Info                 : Audio Coding 3
Codec ID                    : A_AC3
Duration                    : 1 h 47 min
Bit rate mode               : Constant
Bit rate                    : 256 kb/s
Channel(s)                  : 6 channels
Channel positions           : Front: L C R, Side: L R, LFE
Sampling rate               : 48.0 kHz
Frame rate                  : 31.250 FPS (1536 SPF)
Bit depth                   : 16 bits
Compression mode            : Lossy
Stream size                 : 196 MiB (12%)
Language                    : English
Service kind                : Complete Main
Default                     : Yes
Forced                      : No

Text #1
ID                          : 3
Format                      : VobSub
Muxing mode                 : zlib
Duration                    : 1 h 40 min
Bit rate                    : 7 023 b/s
Count of elements           : 1786
Stream size                 : 5.04 MiB (0%)
Language                    : English
Default                     : Yes
Forced                      : No

Text #2
ID                          : 4
Format                      : VobSub
Muxing mode                 : zlib
Duration                    : 1 h 41 min
Bit rate                    : 12.7 kb/s
Count of elements           : 2080
Stream size                 : 9.16 MiB (1%)
Language                    : English
Default                     : No
Forced                      : No






 http://pichub.site/image/krDj
 http://pichub.site/image/komr
 http://pichub.site/image/kpsk
 http://pichub.site/image/k5YQ
 http://pichub.site/image/klzv
 http://pichub.site/image/kPj9


Category:Movies > 1080P Bluray
Lang:English  English
Total Size:1.65 GB
Info Hash:5ffaec9c1ce607cda2a5482ad4c4342ff9755dfe
Added By:Freaky
Date Added:13-01-2018 19:55:23
Downloads:70

Download Torrent

Ratings:Not Yet Rated (Log in to rate it)


Tracker:
http://ipv4.tracker.harry.lu/announce

This Torrent also has backup trackers
URLSeedersLeechersCompleted
http://ipv4.tracker.harry.lu/announce000
http://ipv4.tracker.harry.lu:80/announce000
http://open.kickasstracker.com/announce401
https://open.kickasstracker.com:443/announce401
http://82.209.230.66/announce1232
http://163.172.180.68/announce000


File List: 


Comments

No comments still posted

Powered by 10 Hamsters v2-svn -|- Page Generated In 0.064255 secs.
-|- RSS Feed -|- Feed Info
Theme By: Nikkbu