Login
Username:
Password:
[Signup]
[Recover Account]


Browse Torrents

Poll


You must be logged in to view polls



Latest Torrents
Call.The.Midwife.S...
- [Size: 308.75 MB]

Shaadi Mein Zaroor...
- [Size: 697.54 MB]

Comic.Book.Men.S07...
- [Size: 196.52 MB]

Justice League 201...
- [Size: 1.33 GB]

Bizarre.Foods.S19E...
- [Size: 331.86 MB]


Torrent Details For "Tiger Zinda Hai 2017 1080p BluRay DD 5.1 x264 ESub"

Tiger Zinda Hai 2017 1080p BluRay DD 5.1 x264 ESub

Download this torrent | Magnet Download
Health:
Seeds: 312
Leechers: 114
Completed: 6,225 
Last Checked: 25-02-2018 08:46:59
External Torrent
Update Stats


Watch-Free-HD     Download

Poster
No poster


Watch-Free-HD     Download

Details
Name:Tiger Zinda Hai 2017 1080p BluRay DD 5.1 x264 ESub
Description:

 

General
Format                      : Matroska
Format version              : Version 4 / Version 2
File size                   : 2.30 GiB
Duration                    : 2 h 40 min
Overall bit rate            : 2 060 kb/s

Video
ID                          : 1
Format                      : AVC
Format/Info                 : Advanced Video Codec
Format profile              : [email protected]
Format settings             : CABAC / 4 Ref Frames
Format settings, CABAC      : Yes
Format settings, ReFrames   : 4 frames
Codec ID                    : V_MPEG4/ISO/AVC
Duration                    : 2 h 40 min
Bit rate                    : 1 800 kb/s
Width                       : 1 920 pixels
Height                      : 816 pixels
Display aspect ratio        : 2.35:1
Frame rate mode             : Constant
Frame rate                  : 24.000 FPS
Color space                 : YUV
Chroma subsampling          : 4:2:0
Bit depth                   : 8 bits
Scan type                   : Progressive
Bits/(Pixel*Frame)          : 0.048
Stream size                 : 2.00 GiB (87%)
Writing library             : x264 core 148 r2708 86b7198
Default                     : Yes
Forced                      : No

Audio
ID                          : 4
Format                      : AC-3
Format/Info                 : Audio Coding 3
Codec ID                    : A_AC3
Duration                    : 2 h 39 min
Bit rate mode               : Constant
Bit rate                    : 256 kb/s
Channel(s)                  : 6 channels
Channel positions           : Front: L C R, Side: L R, LFE
Sampling rate               : 48.0 kHz
Frame rate                  : 31.250 FPS (1536 SPF)
Bit depth                   : 16 bits
Compression mode            : Lossy
Stream size                 : 293 MiB (12%)
Service kind                : Complete Main
Default                     : Yes
Forced                      : No

Text #1
ID                          : 2
Format                      : PGS
Muxing mode                 : zlib
Codec ID                    : S_HDMV/PGS
Codec ID/Info               : Picture based subtitle format used on BDs/HD-DVDs
Duration                    : 2 h 23 min
Bit rate                    : 700 b/s
Count of elements           : 216
Stream size                 : 738 KiB (0%)
Language                    : Hindi
Default                     : Yes
Forced                      : No

Text #2
ID                          : 3
Format                      : PGS
Muxing mode                 : zlib
Codec ID                    : S_HDMV/PGS
Codec ID/Info               : Picture based subtitle format used on BDs/HD-DVDs
Duration                    : 2 h 33 min
Bit rate                    : 9 414 b/s
Count of elements           : 3016
Stream size                 : 10.3 MiB (0%)
Language                    : English
Default                     : No
Forced                      : No

Menu
00:00:00.000                : en:00:00:00.000
00:01:32.000                : en:00:01:32.000
00:08:41.167                : en:00:08:41.167
00:17:46.208                : en:00:17:46.208
00:24:54.833                : en:00:24:54.833
00:28:38.000                : en:00:28:38.000
00:33:27.458                : en:00:33:27.458
00:39:18.625                : en:00:39:18.625
00:46:10.417                : en:00:46:10.417
00:51:50.500                : en:00:51:50.500
00:59:08.917                : en:00:59:08.917
01:06:13.042                : en:01:06:13.042
01:13:37.167                : en:01:13:37.167
01:21:20.167                : en:01:21:20.167
01:30:21.917                : en:01:30:21.917
01:37:11.625                : en:01:37:11.625
01:46:10.583                : en:01:46:10.583
01:50:50.458                : en:01:50:50.458
01:59:53.833                : en:01:59:53.833
02:09:24.708                : en:02:09:24.708
02:17:12.333                : en:02:17:12.333
02:27:13.000                : en:02:27:13.000
02:33:19.958                : en:02:33:19.958
02:37:13.417                : en:02:37:13.417




 
 
 
 
 
 
 
 
 
 


Category:Movies > Bollywood
Lang:Hindi
Total Size:2.30 GB
Info Hash:b618789cbd4dda91af33d740b903d4f703ff6020
Added By:Freaky
Date Added:12-02-2018 10:26:17
Downloads:770

Download Torrent

Ratings:Not Yet Rated (Log in to rate it)


Tracker:
udp://tracker.coppersurfer.tk:6969/announce


File List: 


Comments

No comments still posted

Powered by 10 Hamsters v2-svn -|- Page Generated In 3.654946 secs.
-|- RSS Feed -|- Feed Info
Theme By: Nikkbu