Login
Username:
Password:
[Signup]
[Recover Account]


Browse Torrents

Poll


You must be logged in to view polls



Latest Torrents
[18+] Palm Swings ...
- [Size: 2.56 GB]

The Real Tevar - S...
- [Size: 1.21 GB]

Off.the.Map.2018.S...
- [Size: 1.08 GB]

Direct Ishq 2016 H...
- [Size: 982.48 MB]

The Miracle Season...
- [Size: 1.38 GB]


Torrent Details For "Ghajini.2008.BluRay.720p.Hindi.x264.AAC -LatestHDMovies"

Ghajini.2008.BluRay.720p.Hindi.x264.AAC -LatestHDMovies

Download this torrent | Magnet Download
Health:
Seeds: 0
Leechers: 0
Completed:
Last Checked: 15-04-2018 03:30:34
External Torrent
Update Stats


Watch-Free-HD     Download

Poster


iMDB
Imdb Picture Title: Ghajini
Year: 2008
Runtime: 183 minutes
Votes: 42406
Rating: 7.3/10
Language: Hindi, Urdu
Country: India
All Genres: Action, Drama, Mystery, Romance, Thriller
Plot Outline: A short-term memory loss patient sets out on his journey to avenge the death of his beloved girl.
Tagline: Remember Dec.25
Director: A.R. Murugadoss
Writing By: Piyush Mishra,A.R. Murugadoss,
Produced By: Harish Amin,Tejaswita Desai,Tagore Madhu,Madhu Mantena Varma,Amit P. Singh,Allu Sirish,
Music: A.R. Rahman
Plot:

Medical student, Sunita, is driven by curiosity to study the case of Sanjay Singhania, who is afflicted with short-term memory loss. She runs into him, befriends him, and finds out that he is out to kill a seemingly benevolent citizen, Ghajini Dharmatma. After warning the latter of the impending danger, she subsequently comes across a number of diaries written by Sanjay and attempts to put together a jigsaw puzzle as to how a successful and wealthy businessman became a crazed recluse, who re-lives his past through tattoos on his body, notes and Polaroid photographs on the wall of his Hiranandani Complex flat, and his sole obsession of carrying out his deadly mission - little knowing that Ghajini and his goons are out to erase every bit of evidence he has gathered and thus ensure that he ends up remembering nothing.

- Written by rAjOo ([email protected])

One of the wealthiest business tycoon Sanjay Singhania (Owner of Singhania group of Industries) who was a very nice businessman and fell in love with a beautiful girl Kalpana who was an ad film actress. His life is ruined by a man called Ghajini who killed his love and also damaged his brain and two years later he is suffering from a mental disease called short-term memory lost he is living his life by writing notes, clicking pictures and sketching tattoos on his body just to take avenge from the man ghajini.

- Written by Naved Dalkhania

A short-term memory loss patient sets out on his journey to avenge the death of his beloved girl.

- Written by Nebzyl
Cast:
Aamir Khan as Sanjay Singhania / Sachin
Asin as Kalpana Shetty
Jiah Khan as Sunita
Tinnu Anand as Satveer Kohli
Pradeep Singh Rawat as Ghajini Dharmatma
Asif Ahmed as
John Cardiel as
Vibha Chhibber as Havaldar Vijyanti
Neville Dadachanji as Mr. Mehta
Mahendra Gole as


Watch-Free-HD     Download

Details
Name:Ghajini.2008.BluRay.720p.Hindi.x264.AAC -LatestHDMovies
Description:
General
Complete name               : Ghajini.2008.BluRay.720p.Hindi.x264.AAC -LatestHDMovies.MP4
Format                      : MPEG-4
Format profile              : Base Media
Codec ID                    : isom (isom/iso2/avc1/mp41)
File size                   : 1.53 GiB
Duration                    : 3 h 5 min
Overall bit rate            : 1 180 kb/s
Movie name                  : LatestHDMovies
Writing application         : Lavf57.83.100
Cover                       : Yes

Video
ID                          : 1
Format                      : AVC
Format/Info                 : Advanced Video Codec
Format profile              : [email protected]
Format settings             : CABAC / 5 Ref Frames
Format settings, CABAC      : Yes
Format settings, ReFrames   : 5 frames
Format settings, GOP        : M=1, N=87
Codec ID                    : avc1
Codec ID/Info               : Advanced Video Coding
Duration                    : 3 h 5 min
Bit rate                    : 1 088 kb/s
Width                       : 1 280 pixels
Height                      : 546 pixels
Display aspect ratio        : 2.35:1
Original display aspect rat : 2.35:1
Frame rate mode             : Constant
Frame rate                  : 23.976 (24000/1001) FPS
Color space                 : YUV
Chroma subsampling          : 4:2:0
Bit depth                   : 8 bits
Scan type                   : Progressive
Bits/(Pixel*Frame)          : 0.065
Stream size                 : 1.40 GiB (92%)
Writing library             : x264 core 148 r2643 5c65704
Encoding settings           : cabac=1 / ref=5 / deblock=1:0:0 / analyse=0x3:0x113 / me=hex / subme=7 / psy=1 / psy_rd=1.00:0.00 / mixed_ref=1 / me_range=16 / chroma_me=1 / trellis=1 / 8x8dct=1 / cqm=0 / deadzone=21,11 / fast_pskip=1 / chroma_qp_offset=-2 / threads=8 / lookahead_threads=8 / sliced_threads=1 / slices=8 / nr=0 / decimate=1 / interlaced=0 / bluray_compat=0 / constrained_intra=0 / bframes=0 / weightp=2 / keyint=250 / keyint_min=23 / scenecut=40 / intra_refresh=0 / rc=abr / mbtree=0 / bitrate=1088 / ratetol=1.0 / qcomp=0.60 / qpmin=0 / qpmax=69 / qpstep=4 / ip_ratio=1.40 / aq=1:1.00

Audio
ID                          : 2
Format                      : AAC
Format/Info                 : Advanced Audio Codec
Format profile              : LC
Codec ID                    : mp4a-40-2
Duration                    : 3 h 5 min
Bit rate mode               : Constant
Bit rate                    : 96.0 kb/s
Channel(s)                  : 2 channels
Channel positions           : Front: L R
Sampling rate               : 48.0 kHz
Frame rate                  : 46.875 FPS (1024 SPF)
Compression mode            : Lossy
Stream size                 : 127 MiB (8%)
Default                     : Yes
Alternate group             : 1



 
               
Category:Movies > Bollywood
Lang:Hindi
Total Size:1.53 GB
Info Hash:1ff0d026ab9648bd4bd017ad1f3ec4cbc5ba144a
Added By:LatestHDMovies
Date Added:12-02-2018 22:48:23
Downloads:300

Download Torrent

Ratings:Not Yet Rated (Log in to rate it)


Tracker:
udp://tracker.openbittorrent.com:80/announce


File List: 


Comments

No comments still posted

Powered by 10 Hamsters v2-svn -|- Page Generated In 2.069755 secs.
-|- RSS Feed -|- Feed Info
Theme By: Nikkbu