Login
Username:
Password:
[Signup]
[Recover Account]


Browse Torrents

Poll


You must be logged in to view polls



Latest Torrents
Call.The.Midwife.S...
- [Size: 308.75 MB]

Shaadi Mein Zaroor...
- [Size: 697.54 MB]

Comic.Book.Men.S07...
- [Size: 196.52 MB]

Justice League 201...
- [Size: 1.33 GB]

Bizarre.Foods.S19E...
- [Size: 331.86 MB]


Torrent Details For "Kaabil.2017.WEB-DL.720p.Hindi.x264.ACC -LatestHDMovies"

Kaabil.2017.WEB-DL.720p.Hindi.x264.ACC -LatestHDMovies

Download this torrent | Magnet Download
Health:
Seeds: 8
Leechers: 8
Completed: 10 
Last Checked: 14-02-2018 20:29:47
External Torrent
Update Stats


Watch-Free-HD     Download

Poster


iMDB
Imdb Picture Title: Kaabil
Year: 2017
Runtime: 139 minutes
Votes: 16708
Rating: 7.3/10
Language: Hindi
Country: India
All Genres: Action, Drama, Romance, Thriller
Plot Outline: This is the story of a man who lived, laughed and loved just like everyone in this world. Until one day, a terrible tragedy struck. Driven by the fire of vengeance, nothing will stop him. ...
Tagline: The heart sees all.
Director: Sanjay Gupta
Writing By: Sanjay Masoom,Vijay Kumar Mishra,
Produced By: Ronak Motla,Rakesh Roshan,Shammi Saini,Zahir Shah,
Music: Salim Merchant Salim-Sulaiman
Plot:

This is the story of a man who lived, laughed and loved just like everyone in this world. Until one day, a terrible tragedy struck. Driven by the fire of vengeance, nothing will stop him. Not even the fact that he has been blind since birth.

- Written by Official Synopsis
Cast:
Hrithik Roshan as Rohan Bhatnagar
Yami Gautam as Supriya Bhatnagar
Ronit Roy as Madhavrao Shellar
Rohit Roy as Amit Shellar
Narendra Jha as Inspector Chaubey
Girish Kulkarni as Cop
Sahidur Rahaman as Wasim
Suresh Menon as Zafar
Shaji Chaudhary as Anna
Akhilendra Mishra as Wasim's Father
Trailers:
Official Trailer


Watch-Free-HD     Download

Details
Name:Kaabil.2017.WEB-DL.720p.Hindi.x264.ACC -LatestHDMovies
Description:
General
Complete name               : Kaabil.2017.WEB-DL.720p.Hindi.x264.ACC -LatestHDMovies.MP4
Format                      : MPEG-4
Format profile              : Base Media
Codec ID                    : isom (isom/iso2/avc1/mp41)
File size                   : 1.31 GiB
Duration                    : 2 h 14 min
Overall bit rate mode       : Variable
Overall bit rate            : 1 397 kb/s
Movie name                  : LatestHDMovies
Writing application         : Lavf57.71.100
Cover                       : Yes

Video
ID                          : 1
Format                      : AVC
Format/Info                 : Advanced Video Codec
Format profile              : [email protected]
Format settings             : CABAC / 4 Ref Frames
Format settings, CABAC      : Yes
Format settings, ReFrames   : 4 frames
Codec ID                    : avc1
Codec ID/Info               : Advanced Video Coding
Duration                    : 2 h 14 min
Bit rate                    : 1 168 kb/s
Width                       : 1 280 pixels
Height                      : 720 pixels
Display aspect ratio        : 16:9
Frame rate mode             : Constant
Frame rate                  : 25.000 FPS
Color space                 : YUV
Chroma subsampling          : 4:2:0
Bit depth                   : 8 bits
Scan type                   : Progressive
Bits/(Pixel*Frame)          : 0.051
Stream size                 : 1.09 GiB (84%)
Writing library             : x264 core 152 r19 ba24899
Encoding settings           : cabac=1 / ref=2 / deblock=1:0:0 / analyse=0x3:0x113 / me=hex / subme=6 / psy=1 / psy_rd=1.00:0.00 / mixed_ref=1 / me_range=16 / chroma_me=1 / trellis=1 / 8x8dct=1 / cqm=0 / deadzone=21,11 / fast_pskip=1 / chroma_qp_offset=-2 / threads=22 / lookahead_threads=3 / sliced_threads=0 / nr=0 / decimate=1 / interlaced=0 / bluray_compat=0 / constrained_intra=0 / bframes=3 / b_pyramid=2 / b_adapt=1 / b_bias=0 / direct=1 / weightb=1 / open_gop=0 / weightp=1 / keyint=125 / keyint_min=12 / scenecut=40 / intra_refresh=0 / rc_lookahead=30 / rc=crf / mbtree=1 / crf=23.0 / qcomp=0.60 / qpmin=0 / qpmax=69 / qpstep=4 / vbv_maxrate=2600 / vbv_bufsize=5200 / crf_max=0.0 / nal_hrd=none / filler=0 / ip_ratio=1.40 / aq=1:1.00

Audio
ID                          : 2
Format                      : AAC
Format/Info                 : Advanced Audio Codec
Format profile              : LC
Codec ID                    : mp4a-40-2
Duration                    : 2 h 14 min
Duration_LastFrame          : -16 ms
Bit rate mode               : Variable
Bit rate                    : 223 kb/s
Maximum bit rate            : 256 kb/s
Channel(s)                  : 2 channels
Channel positions           : Front: L R
Sampling rate               : 44.1 kHz
Frame rate                  : 43.066 FPS (1024 SPF)
Compression mode            : Lossy
Stream size                 : 213 MiB (16%)
Default                     : Yes
Alternate group             : 1


 
               
Category:Movies > Bollywood
Lang:Hindi
Total Size:1.31 GB
Info Hash:8dfc42dcb7f45e0f111f444feed0341a01074cf8
Added By:LatestHDMovies
Date Added:13-02-2018 02:34:20
Downloads:219

Download Torrent

Ratings:Not Yet Rated (Log in to rate it)


Tracker:
udp://tracker.openbittorrent.com:80/announce


File List: 


Comments

No comments still posted

Powered by 10 Hamsters v2-svn -|- Page Generated In 1.401261 secs.
-|- RSS Feed -|- Feed Info
Theme By: Nikkbu