Login
Username:
Password:
[Signup]
[Recover Account]


Browse Torrents

Poll


You must be logged in to view polls



Latest Torrents
UFC.on.FOX.28.Prel...
- [Size: 1.22 GB]

NASCAR.Xfinity.Ser...
- [Size: 3.00 GB]

UFC.on.FOX.28.Earl...
- [Size: 1.10 GB]

UFC.on.FOX.28.720p...
- [Size: 3.96 GB]

UFC on FOX 28 720p...
- [Size: 3.96 GB]


Torrent Details For "Eddie Griffin Undeniable 2018 1080p WEBRip x264 ESub"

Eddie Griffin Undeniable 2018 1080p WEBRip x264 ESub

Download this torrent | Magnet Download
Health:
Seeds: 29
Leechers: 33
Completed: 30 
Last Checked: 13-02-2018 08:28:29
External Torrent
Update Stats


Watch-Free-HD     Download

Poster
No poster


Watch-Free-HD     Download

Details
Name:Eddie Griffin Undeniable 2018 1080p WEBRip x264 ESub
Description:

 

General
Format                      : Matroska
Format version              : Version 4 / Version 2
File size                   : 904 MiB
Duration                    : 1 h 13 min
Overall bit rate            : 1 723 kb/s

Video
ID                          : 1
Format                      : AVC
Format/Info                 : Advanced Video Codec
Format profile              : [email protected]
Format settings             : CABAC / 4 Ref Frames
Format settings, CABAC      : Yes
Format settings, ReFrames   : 4 frames
Codec ID                    : V_MPEG4/ISO/AVC
Duration                    : 1 h 13 min
Bit rate                    : 1 500 kb/s
Width                       : 1 920 pixels
Height                      : 1 080 pixels
Display aspect ratio        : 16:9
Frame rate mode             : Constant
Frame rate                  : 23.976 (24000/1001) FPS
Color space                 : YUV
Chroma subsampling          : 4:2:0
Bit depth                   : 8 bits
Scan type                   : Progressive
Bits/(Pixel*Frame)          : 0.030
Stream size                 : 769 MiB (85%)
Writing library             : x264 core 148 r2708 86b7198
Default                     : Yes
Forced                      : No

Audio
ID                          : 2
Format                      : AC-3
Format/Info                 : Audio Coding 3
Codec ID                    : A_AC3
Duration                    : 1 h 13 min
Bit rate mode               : Constant
Bit rate                    : 256 kb/s
Channel(s)                  : 6 channels
Channel positions           : Front: L C R, Side: L R, LFE
Sampling rate               : 48.0 kHz
Frame rate                  : 31.250 FPS (1536 SPF)
Bit depth                   : 16 bits
Compression mode            : Lossy
Stream size                 : 134 MiB (15%)
Language                    : English
Service kind                : Complete Main
Default                     : Yes
Forced                      : No

Text #1
ID                          : 3
Format                      : UTF-8
Codec ID                    : S_TEXT/UTF8
Codec ID/Info               : UTF-8 Plain Text
Duration                    : 1 h 9 min
Bit rate                    : 87 b/s
Count of elements           : 1229
Stream size                 : 45.0 KiB (0%)
Language                    : English
Default                     : No
Forced                      : No

Text #2
ID                          : 4
Format                      : UTF-8
Codec ID                    : S_TEXT/UTF8
Codec ID/Info               : UTF-8 Plain Text
Duration                    : 1 h 13 min
Bit rate                    : 86 b/s
Count of elements           : 1315
Stream size                 : 46.6 KiB (0%)
Title                       : SDH
Language                    : English
Default                     : No
Forced                      : No





 
 
 
 
 
 
 
 
 

Category:Movies > HDRips
Lang:English  English
Total Size:903.91 MB
Info Hash:cb15cb0a8fa0b8babe317dc0813468a330b4d1ef
Added By:Freaky
Date Added:13-02-2018 08:28:05
Downloads:37

Download Torrent

Ratings:Not Yet Rated (Log in to rate it)


Tracker:
udp://tracker.coppersurfer.tk:6969/announce


File List: 


Comments

No comments still posted

Powered by 10 Hamsters v2-svn -|- Page Generated In 4.095481 secs.
-|- RSS Feed -|- Feed Info
Theme By: Nikkbu