Login
Username:
Password:
[Signup]
[Recover Account]


Browse Torrents

Poll


You must be logged in to view polls



Latest Torrents
Sacrilege 2017 108...
- [Size: 1.53 GB]

Troy.Fall.Of.A.Cit...
- [Size: 314.36 MB]

Casualty.S32E25.HD...
- [Size: 284.51 MB]

Holy Terror 2017 1...
- [Size: 1.23 GB]

Gold.Rush.S08E18.7...
- [Size: 1,010.49 MB]


Torrent Details For "Battlecreek.2017.720p.WEB-DL.AAC.LLG"

Battlecreek.2017.720p.WEB-DL.AAC.LLG

Download this torrent | Magnet Download
Health:
Seeds: 6
Leechers: 9
Completed: 11 
Last Checked: 13-02-2018 18:50:23
External Torrent
Update Stats


Watch-Free-HD     Download

Poster
No poster


iMDB
Imdb Picture Title: Battlecreek
Year: 2017
Runtime: 97 minutes
Votes: 127
Rating: 6.6/10
Language: English
Country: USA
All Genres: Drama, Romance
Plot Outline: Henry is a loner and a night owl. His rare skin disease has kept him under the close watch of his fiery mother, who has sheltered him his entire life. One night, a young woman's car breaks down and Henry's life will change forever.
Director: Alison Eastwood
Writing By: Anthea Anka,
Produced By: Alison Eastwood,Tempe Hale,Ricky Hill,Stephen Hintz,Constance L. Hoy,Michael G. Wallace,
Cast:
Bill SkarsgÄrd as Henry
Paula Malcomson as Tallulah
Claire van der Boom as Alison
Delroy Lindo as Arthur
Toby Hemingway as Cy
Dana Powell as Melinda
Jordan Salloum as Wes
Jeremy Sande as Carl
Elise Fyke as Janice
Michael Randall as Cowboy


Watch-Free-HD     Download

Details
Name:Battlecreek.2017.720p.WEB-DL.AAC.LLG
Description:
******************************Thumbnail:**********************

 

******************************Screenshots:********************

 Screenshot 1

 Screenshot 2

 Screenshot 3

 Screenshot 4

 Screenshot 5

 Screenshot 6

 Screenshot 7

 Screenshot 8

 Screenshot 9

 Screenshot 0

Complete name                            : Battlecreek.2017.720p.WEB-DL.AAC.LLG.mp4
Format                                   : MPEG-4
Format profile                           : Base Media
Codec ID                                 : isom (isom/iso2/avc1/mp41)
File size                                : 693 MiB
Duration                                 : 1 h 39 min
Overall bit rate                         : 971 kb/s
Writing application                      : Lavf57.56.101

Video
ID                                       : 1
Format                                   : AVC
Format/Info                              : Advanced Video Codec
Format profile                           : [email protected]
Format settings                          : CABAC / 4 Ref Frames
Format settings, CABAC                   : Yes
Format settings, RefFrames               : 4 frames
Codec ID                                 : avc1
Codec ID/Info                            : Advanced Video Coding
Duration                                 : 1 h 39 min
Bit rate                                 : 900 kb/s
Width                                    : 1 280 pixels
Height                                   : 688 pixels
Display aspect ratio                     : 1.85:1
Frame rate mode                          : Constant
Frame rate                               : 23.976 (23976/1000) FPS
Color space                              : YUV
Chroma subsampling                       : 4:2:0
Bit depth                                : 8 bits
Scan type                                : Progressive
Bits/(Pixel*Frame)                       : 0.043
Stream size                              : 642 MiB (93%)

Audio
ID                                       : 2
Format                                   : AAC
Format/Info                              : Advanced Audio Codec
Format profile                           : LC
Codec ID                                 : mp4a-40-2
Duration                                 : 1 h 39 min
Bit rate mode                            : Constant
Bit rate                                 : 64.7 kb/s
Channel(s)                               : 2 channels
Channel positions                        : Front: L R
Sampling rate                            : 48.0 kHz
Frame rate                               : 46.875 FPS (1024 SPF)
Compression mode                         : Lossy
Stream size                              : 46.1 MiB (7%)
Language                                 : English
Default                                  : Yes
Alternate group                          : 1

Category:Movies > HDRips
Lang:English  English
Total Size:704.42 MB
Info Hash:5a7f72a1bf95fb8b7f5531f3778d10736de8a494
Added By:LifeLongg
Date Added:13-02-2018 14:37:46
Downloads:40

Download Torrent

Ratings:Not Yet Rated (Log in to rate it)


Tracker:
udp://tracker.openbittorrent.com:80/announce


File List: 


Comments

No comments still posted

Powered by 10 Hamsters v2-svn -|- Page Generated In 0.073348 secs.
-|- RSS Feed -|- Feed Info
Theme By: Nikkbu