Login
Username:
Password:
[Signup]
[Recover Account]


Browse Torrents

Poll


You must be logged in to view polls



Latest Torrents
Sacrilege 2017 108...
- [Size: 1.53 GB]

Troy.Fall.Of.A.Cit...
- [Size: 314.36 MB]

Casualty.S32E25.HD...
- [Size: 284.51 MB]

Holy Terror 2017 1...
- [Size: 1.23 GB]

Gold.Rush.S08E18.7...
- [Size: 1,010.49 MB]


Torrent Details For "Rocket Raja (Thikka) 2016 Hindi Dubbed 720p WEB-DL x264 AAC { TaRa }.mkv"

Rocket Raja (Thikka) 2016 Hindi Dubbed 720p WEB-DL x264 AAC { TaRa }.mkv

Download this torrent | Magnet Download
Health:
Seeds: 1,121
Leechers: 1,575
Completed: 1,394 
Last Checked: 14-02-2018 12:39:33
External Torrent
Update Stats


Watch-Free-HD     Download

Poster


iMDB
Imdb Picture Title: Thikka
Year: 2016
Runtime: 140 minutes
Votes: 13
Rating: 5.2/10
Language: Telugu, Hindi
Country: India
All Genres: Action, Comedy, Thriller
Plot Outline: A freaky incident during the breakup party of a man leads to an ultimate change in his life as uncalled situations pop up, eventually leading to a lot of frenzy.
Director: Sunil Reddy
Writing By: Lakshmi Bhupal,Sheik Dawood G.,Harsha Vardhan,
Produced By: Dr. Rohin Reddy,
Music: S. Thaman
Cast:
Ajay as Sadhu Bhai
Ali as Kapoor
Anand as Madan Mohan
Raghu Babu as Narsimha
Larissa Bonesi as Anjali
Mannara Chopra as Virisha
Dasanna as Constable
Gurbani as Kamala
Harshavardhan as Mental Doctor
Mumait Khan as Kavitha


Watch-Free-HD     Download

Details
Name:Rocket Raja (Thikka) 2016 Hindi Dubbed 720p WEB-DL x264 AAC { TaRa }.mkv
Description:

Rocket Raja (Thikka) 2016 Hindi Dubbed 720p WEB-DL x264 AAC { TaRa }.mkv
 

===================================================================
General
Complete name               : Rocket Raja (Thikka) 2016 Hindi Dubbed 720p WEB-DL x264 AAC { TaRa }.mkv
Format                      : Matroska
Format version              : Version 4 / Version 2
File size                   : 1.03 GiB
Duration                    : 1 h 59 min
Overall bit rate            : 1 231 kb/s
===================================================================
Video
ID                          : 1
Format                      : AVC
Format/Info                 : Advanced Video Codec
Format profile              : [email protected]
Format settings, CABAC      : Yes
Format settings, ReFrames   : 4 frames
Codec ID                    : V_MPEG4/ISO/AVC
Duration                    : 1 h 59 min
Bit rate                    : 1 100 kb/s
Width                       : 1 280 pixels
Height                      : 544 pixels
Display aspect ratio        : 2.35:1
Frame rate mode             : Constant
Frame rate                  : 25.000 FPS
Color space                 : YUV
Chroma subsampling          : 4:2:0
Bit depth                   : 8 bits
Scan type                   : Progressive
Bits/(Pixel*Frame)          : 0.063
Stream size                 : 942 MiB (90%)
Title                       : .....::::: TaRa :::::.....
Language                    : Hindi
Default                     : Yes
Forced                      : Yes
===================================================================
Audio
ID                          : 2
Format                      : AAC
Format/Info                 : Advanced Audio Codec
Format profile              : LC
Codec ID                    : A_AAC
Duration                    : 1 h 59 min
Bit rate                    : 126 kb/s
Channel(s)                  : 2 channels
Channel positions           : Front: L R
Sampling rate               : 44.1 kHz
Frame rate                  : 43.066 FPS (1024 spf)
Compression mode            : Lossy
Stream size                 : 107 MiB (10%)
Title                       : .....::::: TaRa :::::.....
Language                    : Hindi
Default                     : Yes
Forced                      : No
===================================================================


 
 
 
 
 
 
 
 
 
 
 
 
 
 
 
 
 
 










 


Category:Movies > South Dub
Lang:Hindi
Total Size:1.03 GB
Info Hash:158ed5a0fca7603c2c2c9d3fd3735255a10dc212
Added By:SkTaRa
Date Added:13-02-2018 15:05:27
Downloads:296

Download Torrent

Ratings:Not Yet Rated (Log in to rate it)


Tracker:
udp://tracker.coppersurfer.tk:6969/announce


File List: 


Comments

No comments still posted

Powered by 10 Hamsters v2-svn -|- Page Generated In 4.009153 secs.
-|- RSS Feed -|- Feed Info
Theme By: Nikkbu