Login
Username:
Password:
[Signup]
[Recover Account]


Browse Torrents

Poll


You must be logged in to view polls



Latest Torrents
18+.The Delinquent...
- [Size: 1.08 GB]

Bhavesh Joshi Supe...
- [Size: 1.54 GB]

The.Price.Of.Fame....
- [Size: 741.23 MB]

Eumir Deodato Liv...
- [Size: 312.16 MB]

Jaguar(2018) Hindi...
- [Size: 3.30 GB]


Torrent Details For "Justice League 2017 720p WEB-DL DD 5.1 x264 ESub"

Justice League 2017 720p WEB-DL DD 5.1 x264 ESub

Download this torrent | Magnet Download
Health:
Seeds: 73
Leechers: 237
Completed: 86 
Last Checked: 13-02-2018 18:59:10
External Torrent
Update Stats


Watch-Free-HD     Download

Poster
No poster


Watch-Free-HD     Download

Details
Name:Justice League 2017 720p WEB-DL DD 5.1 x264 ESub
Description:

 

General
Format                      : Matroska
Format version              : Version 4 / Version 2
File size                   : 1.25 GiB
Duration                    : 2 h 0 min
Overall bit rate            : 1 487 kb/s

Video
ID                          : 1
Format                      : AVC
Format/Info                 : Advanced Video Codec
Format profile              : [email protected]
Format settings             : CABAC / 4 Ref Frames
Format settings, CABAC      : Yes
Format settings, ReFrames   : 4 frames
Codec ID                    : V_MPEG4/ISO/AVC
Duration                    : 2 h 0 min
Bit rate                    : 1 300 kb/s
Width                       : 1 280 pixels
Height                      : 720 pixels
Display aspect ratio        : 16:9
Frame rate mode             : Constant
Frame rate                  : 23.976 (24000/1001) FPS
Color space                 : YUV
Chroma subsampling          : 4:2:0
Bit depth                   : 8 bits
Scan type                   : Progressive
Bits/(Pixel*Frame)          : 0.059
Stream size                 : 1.08 GiB (87%)
Writing library             : x264 core 148 r2708 86b7198
Default                     : Yes
Forced                      : No

Audio
ID                          : 2
Format                      : AC-3
Format/Info                 : Audio Coding 3
Codec ID                    : A_AC3
Duration                    : 2 h 0 min
Bit rate mode               : Constant
Bit rate                    : 192 kb/s
Channel(s)                  : 6 channels
Channel positions           : Front: L C R, Side: L R, LFE
Sampling rate               : 48.0 kHz
Frame rate                  : 31.250 FPS (1536 SPF)
Bit depth                   : 16 bits
Compression mode            : Lossy
Stream size                 : 165 MiB (13%)
Language                    : English
Service kind                : Complete Main
Default                     : Yes
Forced                      : No

Text
ID                          : 3
Format                      : UTF-8
Codec ID                    : S_TEXT/UTF8
Codec ID/Info               : UTF-8 Plain Text
Duration                    : 1 h 49 min
Bit rate                    : 43 b/s
Count of elements           : 1279
Stream size                 : 35.3 KiB (0%)
Language                    : English
Default                     : Yes
Forced                      : No





 
 
 
 
 
 
 
 
 
 

Category:Movies > HDRips
Lang:English  English
Total Size:1.25 GB
Info Hash:83b536469eb452066b63685ba19ae9e64bbd65b6
Added By:Freaky
Date Added:13-02-2018 16:42:48
Downloads:55

Download Torrent

Ratings:Not Yet Rated (Log in to rate it)


Tracker:
udp://tracker.coppersurfer.tk:6969/announce


File List: 


Comments

No comments still posted

Powered by 10 Hamsters v2-svn -|- Page Generated In 9.170211 secs.
-|- RSS Feed -|- Feed Info
Theme By: Nikkbu