Login
Username:
Password:
[Signup]
[Recover Account]


Browse Torrents

Poll


You must be logged in to view polls



Latest Torrents
MasterChef.Austral...
- [Size: 393.26 MB]

King Kong Lives 19...
- [Size: 640.37 MB]

Hotel Transylvania...
- [Size: 850.05 MB]

Rosy.2018.HDRip.Xv...
- [Size: 1.36 GB]

TMZ.on.TV.2018.07....
- [Size: 160.40 MB]


Torrent Details For "Darkest Hour 2017 1080p BRRip x264 AAC - Hon3y"

Darkest Hour 2017 1080p BRRip x264 AAC - Hon3y

Download this torrent | Magnet Download
Health:
Seeds: 237
Leechers: 157
Completed: 460 
Last Checked: 14-02-2018 18:58:43
External Torrent
Update Stats


Watch-Free-HD     Download

Poster


iMDB
Imdb Picture Title: Darkest Hour
Year: 2017
Runtime: 125 minutes
Votes: 1915
Rating: 5.7/10
Language: English
Country: UK
All Genres: Biography, Drama, History, War
Plot Outline: During the early days of World War II, the fate of Western Europe hangs on the newly-appointed British Prime Minister Winston Churchill, who must decide whether to negotiate with Hitler, or fight on against incredible odds.
Tagline: Never, never, never surrender.
Director: Joe Wright
Writing By: Anthony McCarten,
Produced By: Tim Bevan,James Biddle,Lisa Bruce,Eric Fellner,Katherine Keating,Anthony McCarten,Douglas Urbanski,Lucas Webb,
Music: Dario Marianelli
Cast:
Lily James as Elizabeth Layton
Gary Oldman as Winston Churchill
Ben Mendelsohn as King George VI
Kristin Scott Thomas as Clementine Churchill
Stephen Dillane as Viscount Halifax
Samuel West as Sir Anthony Eden
Hannah Steele as Abigail Walker
Ronald Pickup as Neville Chamberlain
Jordan Waller as Randolph Churchill
Richard Lumsden as General Ismay
Trailers:
Official Trailer #2
International Trailer
Trailer #1


Watch-Free-HD     Download

Details
Name:Darkest Hour 2017 1080p BRRip x264 AAC - Hon3y
Description:
Darkest Hour 2017 1080p BRRip x264 AAC - Hon3y

Source:Drones
Format                      : Matroska
Format version              : Version 4 / Version 2
File size                   : 2.46 GiB
Duration                    : 2 h 4 min
Overall bit rate            : 2 822 kb/s
Movie name                  : Darkest Hour 2017 - Hon3y


Video
ID                          : 1
Format                      : AVC
Format/Info                 : Advanced Video Codec
Format profile              : [email protected]
Format settings, CABAC      : Yes
Format settings, RefFrames  : 4 frames
Codec ID                    : V_MPEG4/ISO/AVC
Duration                    : 2 h 4 min
Bit rate                    : 2 500 kb/s
Width                       : 1 920 pixels
Height                      : 1 040 pixels
Display aspect ratio        : 1.85:1
Frame rate mode             : Constant
Frame rate                  : 23.976 (24000/1001) FPS
Language                    : English
Default                     : Yes
Forced                      : No
Color range                 : Limited
Color primaries             : BT.709
Transfer characteristics    : BT.709
Matrix coefficients         : BT.709

Audio
ID                          : 2
Format                      : AAC
Format/Info                 : Advanced Audio Codec
Format profile              : LC
Codec ID                    : A_AAC
Duration                    : 2 h 4 min
Bit rate                    : 320 kb/s
Channel(s)                  : 6 channels
Channel positions           : Front: L C R, Side: L R, LFE
Sampling rate               : 48.0 kHz
Frame rate                  : 46.875 FPS (1024 SPF)
Compression mode            : Lossy
Delay relative to video     : 9 ms
Stream size                 : 286 MiB (11%)
Language                    : English
Default                     : Yes
Forced                      : No

Text
ID                          : 3
Format                      : UTF-8
Codec ID                    : S_TEXT/UTF8
Codec ID/Info               : UTF-8 Plain Text
Duration                    : 1 h 57 min
Bit rate                    : 59 b/s
Count of elements           : 1814
Stream size                 : 50.8 KiB (0%)
Language                    : English
Default                     : Yes
Forced                      : No


           
Category:Movies > 1080P Bluray
Lang:English  English
Total Size:2.46 GB
Info Hash:8d59c7dbdeea8e3c6e6558de93fa2c0c9401d714
Added By:Hon3y
Date Added:14-02-2018 07:12:51
Downloads:243

Download Torrent

Ratings:Not Yet Rated (Log in to rate it)


Tracker:
udp://tracker.coppersurfer.tk:6969/announce


File List: 


Comments

No comments still posted

Powered by 10 Hamsters v2-svn -|- Page Generated In 1.086733 secs.
-|- RSS Feed -|- Feed Info
Theme By: Nikkbu