Login
Username:
Password:
[Signup]
[Recover Account]


Browse Torrents

Poll


You must be logged in to view polls



Latest Torrents
Jimmy.Fallon.2018....
- [Size: 574.17 MB]

MasterChef.Austral...
- [Size: 393.26 MB]

King Kong Lives 19...
- [Size: 640.37 MB]

Hotel Transylvania...
- [Size: 850.05 MB]

Rosy.2018.HDRip.Xv...
- [Size: 1.36 GB]


Torrent Details For "Grindhouse Nightmares 2017 720p WEB-DL x264 ESub"

Grindhouse Nightmares 2017 720p WEB-DL x264 ESub

Download this torrent | Magnet Download
Health:
Seeds: 20
Leechers: 64
Completed: 12 
Last Checked: 14-02-2018 11:00:54
External Torrent
Update Stats


Watch-Free-HD     Download

Poster
No poster


Watch-Free-HD     Download

Details
Name:Grindhouse Nightmares 2017 720p WEB-DL x264 ESub
Description:

 

General
Format                      : Matroska
Format version              : Version 4 / Version 2
File size                   : 804 MiB
Duration                    : 1 h 13 min
Overall bit rate            : 1 521 kb/s

Video
ID                          : 1
Format                      : AVC
Format/Info                 : Advanced Video Codec
Format profile              : [email protected]
Format settings             : CABAC / 4 Ref Frames
Format settings, CABAC      : Yes
Format settings, ReFrames   : 4 frames
Codec ID                    : V_MPEG4/ISO/AVC
Duration                    : 1 h 13 min
Bit rate                    : 1 400 kb/s
Width                       : 1 280 pixels
Height                      : 532 pixels
Display aspect ratio        : 2.40:1
Frame rate mode             : Constant
Frame rate                  : 23.976 (24000/1001) FPS
Color space                 : YUV
Chroma subsampling          : 4:2:0
Bit depth                   : 8 bits
Scan type                   : Progressive
Bits/(Pixel*Frame)          : 0.086
Stream size                 : 735 MiB (91%)
Writing library             : x264 core 148 r2708 86b7198
Default                     : Yes
Forced                      : No

Audio
ID                          : 2
Format                      : AAC
Format/Info                 : Advanced Audio Codec
Format profile              : LC
Codec ID                    : A_AAC-2
Duration                    : 1 h 13 min
Bit rate                    : 128 kb/s
Channel(s)                  : 2 channels
Channel positions           : Front: L R
Sampling rate               : 44.1 kHz
Frame rate                  : 43.066 FPS (1024 SPF)
Compression mode            : Lossy
Stream size                 : 67.6 MiB (8%)
Language                    : English
Default                     : Yes
Forced                      : No

Text
ID                          : 3
Format                      : UTF-8
Codec ID                    : S_TEXT/UTF8
Codec ID/Info               : UTF-8 Plain Text
Duration                    : 1 h 11 min
Bit rate                    : 48 b/s
Count of elements           : 903
Stream size                 : 25.4 KiB (0%)
Language                    : English
Default                     : Yes
Forced                      : No

Menu
00:00:00.000                : en:Chapter 1
00:10:00.600                : en:Chapter 2
00:20:01.200                : en:Chapter 3
00:30:01.800                : en:Chapter 4
00:40:02.400                : en:Chapter 5
00:50:03.000                : en:Chapter 6
01:00:03.600                : en:Chapter 7
01:10:04.200                : en:Chapter 8





 
 
 
 
 
 
 
 
 
 

Category:Movies > HDRips
Lang:English  English
Total Size:803.85 MB
Info Hash:06c493d3c152165234fd9bd9826028cd8c608cc8
Added By:Freaky
Date Added:14-02-2018 11:00:17
Downloads:49

Download Torrent

Ratings:Not Yet Rated (Log in to rate it)


Tracker:
udp://tracker.coppersurfer.tk:6969/announce


File List: 


Comments

No comments still posted

Powered by 10 Hamsters v2-svn -|- Page Generated In 6.909926 secs.
-|- RSS Feed -|- Feed Info
Theme By: Nikkbu