Login
Username:
Password:
[Signup]
[Recover Account]


Browse Torrents

Poll


You must be logged in to view polls



Latest Torrents
MasterChef.Austral...
- [Size: 393.26 MB]

King Kong Lives 19...
- [Size: 640.37 MB]

Hotel Transylvania...
- [Size: 850.05 MB]

Rosy.2018.HDRip.Xv...
- [Size: 1.36 GB]

TMZ.on.TV.2018.07....
- [Size: 160.40 MB]


Torrent Details For "Maatr (2017) HDRip 720p Hindi x264 AC3 -LatestHDMovies"

Maatr (2017) HDRip 720p Hindi x264 AC3 -LatestHDMovies

Download this torrent | Magnet Download
Health:
Seeds: 23
Leechers: 0
Completed: 719 
Last Checked: 03-03-2018 23:00:54
External Torrent
Update Stats


Watch-Free-HD     Download

Poster


iMDB
Imdb Picture Title: Maatr
Year: 2017
Runtime: 113 minutes
Votes: 39
Rating: 7.1/10
Language: Hindi
Country: India
All Genres: Thriller
Plot Outline: Vidya, who's left shattered after her daughter Tia's murder, seeks vengeance by fighting the broken justice and criminal system.
Director: Ashtar Sayed
Writing By: Michael Pellico,Mishkka Shekhawat,
Produced By: Manoj Adhikari,Shailendra Kaushik,Asif Khan,Michael Pellico,Stephen Pellico,Anjum Rizvi,Yaniv Rokah,Ayesha Shiva,
Music: Utkarsh Umesh Dhotekar
Plot:

Vidya, who's left shattered after her daughter Tia's murder, seeks vengeance by fighting the broken justice and criminal system.


Cast:
Raveena Tandon as Vidya Chauhan
Madhur Mittal as Apurva Malik
Alisha Khan as Tia
Anurag Arora as Inspector Jayant Shroff
Divya Jagdale as Ritu
Saheem Khan as Inspector Akhil
Piyush Kaushik as Sikander Beniwal
Shailender Goel as Govardhan Malik
Nitin Sharma as Inder Jhangra
Ishan Bhatt as Kamran Qureshi


Watch-Free-HD     Download

Details
Name:Maatr (2017) HDRip 720p Hindi x264 AC3 -LatestHDMovies
Description:

General
Unique ID                   : 198527465633679121994105364765277940049 (0x955AFFC4042AD8BEB949141C3923E951)
Complete name               : C:\Users\SHAHID\Downloads\Video\Maatr 2017 HDRip 720p Hindi x264 AC3 -LatestHDMovies.mkv
Format                      : Matroska
Format version              : Version 4 / Version 2
File size                   : 1.36 GiB
Duration                    : 1 h 42 min
Overall bit rate            : 1 904 kb/s
Movie name                  : LatestHDMovies
Encoded date                : UTC 2018-02-14 04:01:00
Writing application         : mkvmerge v9.5.0 ('Quiet Fire') 64bit
Writing library             : libebml v1.3.4 + libmatroska v1.4.5

Video
ID                          : 1
Format                      : AVC
Format/Info                 : Advanced Video Codec
Format profile              : [email protected]
Format settings             : CABAC / 5 Ref Frames
Format settings, CABAC      : Yes
Format settings, ReFrames   : 5 frames
Codec ID                    : V_MPEG4/ISO/AVC
Duration                    : 1 h 42 min
Bit rate                    : 1 738 kb/s
Nominal bit rate            : 1 854 kb/s
Width                       : 1 280 pixels
Height                      : 544 pixels
Display aspect ratio        : 2.35:1
Frame rate mode             : Constant
Frame rate                  : 25.000 FPS
Color space                 : YUV
Chroma subsampling          : 4:2:0
Bit depth                   : 8 bits
Scan type                   : Progressive
Bits/(Pixel*Frame)          : 0.100
Stream size                 : 1.24 GiB (91%)
Title                       : LatestHDMovies
Writing library             : x264 core 148 r2708 86b7198
Encoding settings           : cabac=1 / ref=5 / deblock=1:0:0 / analyse=0x3:0x113 / me=umh / subme=8 / psy=1 / psy_rd=1.00:0.00 / mixed_ref=1 / me_range=16 / chroma_me=1 / trellis=1 / 8x8dct=1 / cqm=0 / deadzone=21,11 / fast_pskip=1 / chroma_qp_offset=-2 / threads=12 / lookahead_threads=2 / sliced_threads=0 / nr=0 / decimate=1 / interlaced=0 / bluray_compat=0 / constrained_intra=0 / bframes=3 / b_pyramid=2 / b_adapt=2 / b_bias=0 / direct=3 / weightb=1 / open_gop=0 / weightp=2 / keyint=250 / keyint_min=25 / scenecut=40 / intra_refresh=0 / rc_lookahead=50 / rc=abr / mbtree=1 / bitrate=1854 / ratetol=1.0 / qcomp=0.60 / qpmin=0 / qpmax=69 / qpstep=4 / vbv_maxrate=25000 / vbv_bufsize=31250 / nal_hrd=none / filler=0 / ip_ratio=1.40 / aq=1:1.00
Default                     : Yes
Forced                      : No
Color range                 : Limited
Color primaries             : BT.709
Transfer characteristics    : BT.709
Matrix coefficients         : BT.709

Audio
ID                          : 2
Format                      : AC-3
Format/Info                 : Audio Coding 3
Codec ID                    : A_AC3
Duration                    : 1 h 42 min
Bit rate mode               : Constant
Bit rate                    : 128 kb/s
Channel(s)                  : 2 channels
Channel positions           : Front: L R
Sampling rate               : 48.0 kHz
Frame rate                  : 31.250 FPS (1536 SPF)
Bit depth                   : 16 bits
Compression mode            : Lossy
Delay relative to video     : -5 ms
Stream size                 : 93.6 MiB (7%)
Title                       : LatestHDMovies
Service kind                : Complete Main
Default                     : Yes
Forced                      : No


 
               
Category:Movies > Bollywood
Lang:Hindi
Total Size:1.36 GB
Info Hash:566279fb02effbae9530f7aaac08d4446ea031cd
Added By:LatestHDMovies
Date Added:14-02-2018 12:03:57
Downloads:760

Download Torrent

Ratings:Not Yet Rated (Log in to rate it)


Tracker:
udp://tracker.openbittorrent.com:80/announce


File List: 


Comments

No comments still posted

Powered by 10 Hamsters v2-svn -|- Page Generated In 1.401936 secs.
-|- RSS Feed -|- Feed Info
Theme By: Nikkbu