Login
Username:
Password:
[Signup]
[Recover Account]


Browse Torrents

Poll


You must be logged in to view polls



Latest Torrents
[18+] Palm Swings ...
- [Size: 2.56 GB]

The Real Tevar - S...
- [Size: 1.21 GB]

Off.the.Map.2018.S...
- [Size: 1.08 GB]

Direct Ishq 2016 H...
- [Size: 982.48 MB]

The Miracle Season...
- [Size: 1.38 GB]


Torrent Details For "Three Billboards Outside Ebbing Missouri 2017 1080p WEB-DL DD 5.1 x264 ESub"

Three Billboards Outside Ebbing Missouri 2017 1080p WEB-DL DD 5.1 x264 ESub

Download this torrent | Magnet Download
Health:
Seeds: 65
Leechers: 76
Completed: 108 
Last Checked: 14-02-2018 13:36:47
External Torrent
Update Stats


Watch-Free-HD     Download

Poster
No poster


Watch-Free-HD     Download

Details
Name:Three Billboards Outside Ebbing Missouri 2017 1080p WEB-DL DD 5.1 x264 ESub
Description:

 

General
Format                      : Matroska
Format version              : Version 4 / Version 2
File size                   : 1.56 GiB
Duration                    : 1 h 55 min
Overall bit rate            : 1 937 kb/s

Video
ID                          : 1
Format                      : AVC
Format/Info                 : Advanced Video Codec
Format profile              : [email protected]
Format settings             : CABAC / 4 Ref Frames
Format settings, CABAC      : Yes
Format settings, ReFrames   : 4 frames
Codec ID                    : V_MPEG4/ISO/AVC
Duration                    : 1 h 55 min
Bit rate                    : 1 700 kb/s
Width                       : 1 920 pixels
Height                      : 800 pixels
Display aspect ratio        : 2.40:1
Frame rate mode             : Constant
Frame rate                  : 23.976 (24000/1001) FPS
Color space                 : YUV
Chroma subsampling          : 4:2:0
Bit depth                   : 8 bits
Scan type                   : Progressive
Bits/(Pixel*Frame)          : 0.046
Stream size                 : 1.35 GiB (87%)
Writing library             : x264 core 148 r2708 86b7198
Default                     : Yes
Forced                      : No

Audio
ID                          : 2
Format                      : AC-3
Format/Info                 : Audio Coding 3
Codec ID                    : A_AC3
Duration                    : 1 h 55 min
Bit rate mode               : Constant
Bit rate                    : 256 kb/s
Channel(s)                  : 6 channels
Channel positions           : Front: L C R, Side: L R, LFE
Sampling rate               : 48.0 kHz
Frame rate                  : 31.250 FPS (1536 SPF)
Bit depth                   : 16 bits
Compression mode            : Lossy
Stream size                 : 211 MiB (13%)
Language                    : English
Service kind                : Complete Main
Default                     : Yes
Forced                      : No

Text
ID                          : 3
Format                      : UTF-8
Codec ID                    : S_TEXT/UTF8
Codec ID/Info               : UTF-8 Plain Text
Duration                    : 1 h 54 min
Bit rate                    : 56 b/s
Count of elements           : 1658
Stream size                 : 47.3 KiB (0%)
Title                       : English
Language                    : English
Default                     : No
Forced                      : No




 
 
 
 
 
 
 
 
 
 

Category:Movies > HDRips
Lang:English  English
Total Size:1.56 GB
Info Hash:800744279edc42105a5b1388e3b551eedbf4ef35
Added By:Freaky
Date Added:14-02-2018 13:35:35
Downloads:49

Download Torrent

Ratings:Not Yet Rated (Log in to rate it)


Tracker:
udp://tracker.coppersurfer.tk:6969/announce


File List: 


Comments

No comments still posted

Powered by 10 Hamsters v2-svn -|- Page Generated In 6.323207 secs.
-|- RSS Feed -|- Feed Info
Theme By: Nikkbu