Login
Username:
Password:
[Signup]
[Recover Account]


Browse Torrents

Poll


You must be logged in to view polls



Latest Torrents
Rabbit Hole (2010)...
- [Size: 848.77 MB]

The Twilight Saga:...
- [Size: 1.10 GB]

The Twilight Saga:...
- [Size: 974.05 MB]

Boonie Bears III 2...
- [Size: 700.11 MB]

Charlotte.2017.HDR...
- [Size: 945.28 MB]


Torrent Details For "Braven 2018 1080p WEB-DL DD 5.1 x264 ESub"

Braven 2018 1080p WEB-DL DD 5.1 x264 ESub

Download this torrent | Magnet Download
Health:
Seeds: 442
Leechers: 619
Completed: 1,166 
Last Checked: 15-02-2018 10:34:31
External Torrent
Update Stats


Watch-Free-HD     Download

Poster
No poster


Watch-Free-HD     Download

Details
Name:Braven 2018 1080p WEB-DL DD 5.1 x264 ESub
Description:

 

General
Format                      : Matroska
Format version              : Version 4 / Version 2
File size                   : 1.71 GiB
Duration                    : 1 h 33 min
Overall bit rate            : 2 609 kb/s

Video
ID                          : 1
Format                      : AVC
Format/Info                 : Advanced Video Codec
Format profile              : [email protected]
Format settings             : CABAC / 4 Ref Frames
Format settings, CABAC      : Yes
Format settings, ReFrames   : 4 frames
Codec ID                    : V_MPEG4/ISO/AVC
Duration                    : 1 h 33 min
Bit rate                    : 2 400 kb/s
Width                       : 1 916 pixels
Height                      : 812 pixels
Display aspect ratio        : 2.35:1
Frame rate mode             : Constant
Frame rate                  : 23.976 (24000/1001) FPS
Color space                 : YUV
Chroma subsampling          : 4:2:0
Bit depth                   : 8 bits
Scan type                   : Progressive
Bits/(Pixel*Frame)          : 0.064
Stream size                 : 1.54 GiB (90%)
Writing library             : x264 core 148 r2708 86b7198
Default                     : Yes
Forced                      : No

Audio
ID                          : 3
Format                      : AC-3
Format/Info                 : Audio Coding 3
Codec ID                    : A_AC3
Duration                    : 1 h 33 min
Bit rate mode               : Constant
Bit rate                    : 256 kb/s
Channel(s)                  : 6 channels
Channel positions           : Front: L C R, Side: L R, LFE
Sampling rate               : 48.0 kHz
Frame rate                  : 31.250 FPS (1536 SPF)
Bit depth                   : 16 bits
Compression mode            : Lossy
Stream size                 : 172 MiB (10%)
Language                    : English
Service kind                : Complete Main
Default                     : Yes
Forced                      : No

Text
ID                          : 2
Format                      : UTF-8
Codec ID                    : S_TEXT/UTF8
Codec ID/Info               : UTF-8 Plain Text
Duration                    : 1 h 25 min
Bit rate                    : 36 b/s
Count of elements           : 922
Stream size                 : 22.6 KiB (0%)
Title                       : English
Language                    : English
Default                     : Yes
Forced                      : No





 
 
 
 
 
 
 
 

Category:Movies > HDRips
Lang:English  English
Total Size:1.71 GB
Info Hash:c4825d9f69bce1f4b49f68102e6a80a14172566e
Added By:Freaky
Date Added:14-02-2018 16:48:01
Downloads:121

Download Torrent

Ratings:Not Yet Rated (Log in to rate it)


Tracker:
udp://tracker.coppersurfer.tk:6969/announce


File List: 


Comments

No comments still posted

Powered by 10 Hamsters v2-svn -|- Page Generated In 4.790048 secs.
-|- RSS Feed -|- Feed Info
Theme By: Nikkbu