Login
Username:
Password:
[Signup]
[Recover Account]


Browse Torrents

Poll


You must be logged in to view polls



Latest Torrents
[18+] Palm Swings ...
- [Size: 2.56 GB]

The Real Tevar - S...
- [Size: 1.21 GB]

Off.the.Map.2018.S...
- [Size: 1.08 GB]

Direct Ishq 2016 H...
- [Size: 982.48 MB]

The Miracle Season...
- [Size: 1.38 GB]


Torrent Details For "1920 Evil Returns (2012) BRRip 720p Hindi x264 ACC -LatestHDMovies"

1920 Evil Returns (2012) BRRip 720p Hindi x264 ACC -LatestHDMovies

Download this torrent | Magnet Download
Health:
Seeds: 31
Leechers: 15
Completed: 485 
Last Checked: 24-02-2018 01:37:01
External Torrent
Update Stats


Watch-Free-HD     Download

Poster


iMDB
Imdb Picture Title: 1920: Evil Returns
Year: 2012
Runtime: 124 minutes
Votes: 1302
Rating: 4.9/10
Language: Hindi
Country: India
All Genres: Drama, Horror, Romance
Plot Outline: This story revolves around a famous poet who meets a woman who is in trouble. In order to treat her, he takes her to Shimla in a big hospital, but soon that woman gets possessed by devil ...
Tagline: Possession is back
Director: Bhushan Patel
Writing By: Vikram Bhatt,
Produced By: Vikram Bhatt,Dharmendra Rawal,
Music: Amar Mohile
Plot:

This story revolves around a famous poet who meets a woman who is in trouble. In order to treat her, he takes her to Shimla in a big hospital, but soon that woman gets possessed by devil and goes out of control. Now the question remains that what is the relation that poet shares with her which compelled him to go to any extent to save her, why she was possessed by devil and who is the devil.

- Written by [email protected]
Cast:
Vicky Ahuja as Bankimal
Tia Bajpai as Smriti / Sangeeta
Sharad Kelkar as Amar
Vidya Malvade as Karuna Verma
Naresh Sharma as Driver of Horse Carriag
Aftab Shivdasani as Jaidev Verma


Watch-Free-HD     Download

Details
Name:1920 Evil Returns (2012) BRRip 720p Hindi x264 ACC -LatestHDMovies
Description:

SAMPLE
 https://oload.stream/f/euWEQf5...-LatestHDMovies-.mp4



General
Complete name               : 1920 Evil Returns (2012) BRRip 720p Hindi x264 ACC -LatestHDMovies.mp4
Format                      : MPEG-4
Format profile              : Base Media
Codec ID                    : isom (isom/iso2/avc1/mp41)
File size                   : 1.20 GiB
Duration                    : 2 h 4 min
Overall bit rate            : 1 382 kb/s
Movie name                  : LatestHDMovies
Writing application         : Lavf57.56.101
Cover                       : Yes

Video
ID                          : 1
Format                      : AVC
Format/Info                 : Advanced Video Codec
Format profile              : [email protected]
Format settings             : CABAC / 3 Ref Frames
Format settings, CABAC      : Yes
Format settings, ReFrames   : 3 frames
Codec ID                    : avc1
Codec ID/Info               : Advanced Video Coding
Duration                    : 2 h 4 min
Source duration             : 2 h 4 min
Bit rate                    : 1 152 kb/s
Width                       : 1 280 pixels
Height                      : 544 pixels
Display aspect ratio        : 2.35:1
Frame rate mode             : Constant
Frame rate                  : 29.970 (30000/1001) FPS
Color space                 : YUV
Chroma subsampling          : 4:2:0
Bit depth                   : 8 bits
Scan type                   : Progressive
Bits/(Pixel*Frame)          : 0.055
Stream size                 : 1 021 MiB (83%)
Source stream size          : 1 021 MiB (83%)
Writing library             : x264 core 148 r2643 5c65704
Encoding settings           : cabac=1 / ref=3 / deblock=1:0:0 / analyse=0x3:0x113 / me=hex / subme=7 / psy=1 / psy_rd=1.00:0.00 / mixed_ref=1 / me_range=16 / chroma_me=1 / trellis=1 / 8x8dct=1 / cqm=0 / deadzone=21,11 / fast_pskip=1 / chroma_qp_offset=-2 / threads=8 / lookahead_threads=8 / sliced_threads=1 / slices=8 / nr=0 / decimate=1 / interlaced=0 / bluray_compat=0 / constrained_intra=0 / bframes=0 / weightp=2 / keyint=250 / keyint_min=25 / scenecut=40 / intra_refresh=0 / rc=abr / mbtree=0 / bitrate=1152 / ratetol=1.0 / qcomp=0.60 / qpmin=0 / qpmax=69 / qpstep=4 / ip_ratio=1.40 / aq=1:1.00

Audio
ID                          : 2
Format                      : AAC
Format/Info                 : Advanced Audio Codec
Format profile              : LC
Codec ID                    : mp4a-40-2
Duration                    : 2 h 4 min
Bit rate mode               : Constant
Bit rate                    : 224 kb/s
Channel(s)                  : 2 channels
Channel(s)_Original         : 6 channels
Channel positions           : Front: L C R, Side: L R, LFE
Sampling rate               : 48.0 kHz
Frame rate                  : 46.875 FPS (1024 SPF)
Compression mode            : Lossy
Stream size                 : 199 MiB (16%)
Language                    : Hindi
Default                     : Yes
Alternate group             : 1


 
               
Category:Movies > Bollywood
Lang:Hindi
Total Size:1.20 GB
Info Hash:48099a9ecae21de771fc305acf7575b29bd3ebab
Added By:LatestHDMovies
Date Added:14-02-2018 22:29:17
Downloads:423

Download Torrent

Ratings:Not Yet Rated (Log in to rate it)


Tracker:
udp://tracker.openbittorrent.com:80/announce


File List: 


Comments

No comments still posted

Powered by 10 Hamsters v2-svn -|- Page Generated In 3.195209 secs.
-|- RSS Feed -|- Feed Info
Theme By: Nikkbu