Login
Username:
Password:
[Signup]
[Recover Account]


Browse Torrents

Poll


You must be logged in to view polls



Latest Torrents
Occult.Angel.2018....
- [Size: 1.37 GB]

The.Real.Housewive...
- [Size: 597.76 MB]

Return.of.the.Scar...
- [Size: 1.27 GB]

Watch.What.Happens...
- [Size: 303.73 MB]

The.Devils.Well.20...
- [Size: 1.29 GB]


Torrent Details For "Parched (2016) Hindi 720p WebHDRip x264 AAC ESub { TaRa }.mkv"

Parched (2016) Hindi 720p WebHDRip x264 AAC ESub { TaRa }.mkv

Download this torrent | Magnet Download
Health:
Seeds: 0
Leechers: 6
Completed: 512 
Last Checked: 16-10-2017 05:21:05
External Torrent
Update Stats


Watch-Free-HD     Download

Poster


Watch-Free-HD     Download

Details
Name:Parched (2016) Hindi 720p WebHDRip x264 AAC ESub { TaRa }.mkv
Description:

Quote:

Parched (2016) Hindi 720p WebHDRip x264 AAC ESub { TaRa }.mkv


===================================================================
General
Complete name               : Parched (2016) Hindi 720p WebHDRip x264 AAC ESub { TaRa }.mkv
Format                      : Matroska
Format version              : Version 4 / Version 2
File size                   : 1.33 GiB
Duration                    : 1 h 56 min
Overall bit rate            : 1 629 kb/s
===================================================================
Video
ID                          : 1
Format                      : AVC
Format/Info                 : Advanced Video Codec
Format profile              : [email protected]
Format settings, CABAC      : Yes
Format settings, ReFrames   : 12 frames
Codec ID                    : V_MPEG4/ISO/AVC
Duration                    : 1 h 56 min
Bit rate                    : 1 478 kb/s
Width                       : 1 280 pixels
Height                      : 534 pixels
Display aspect ratio        : 2.40:1
Frame rate mode             : Constant
Frame rate                  : 23.976 (24000/1001) FPS
Color space                 : YUV
Chroma subsampling          : 4:2:0
Bit depth                   : 8 bits
Scan type                   : Progressive
Bits/(Pixel*Frame)          : 0.090
Stream size                 : 1.21 GiB (91%)
Title                       : ....:::: TaRa ::::.....
Language                    : Hindi
Default                     : Yes
Forced                      : No
===================================================================
Audio
ID                          : 2
Format                      : AAC
Format/Info                 : Advanced Audio Codec
Format profile              : LC
Codec ID                    : A_AAC
Duration                    : 1 h 56 min
Bit rate                    : 150 kb/s
Channel(s)                  : 2 channels
Channel positions           : Front: L R
Sampling rate               : 44.1 kHz
Frame rate                  : 43.066 FPS (1024 spf)
Compression mode            : Lossy
Stream size                 : 125 MiB (9%)
Title                       : ....:::: TaRa ::::.....
Language                    : Hindi
Default                     : Yes
Forced                      : No
===================================================================


                                     










Category:Movies > Bollywood
Lang:Hindi
Total Size:1.33 GB
Info Hash:3667a58741c854200e060da217e174dcdda440ab
Added By:SkTaRa
Date Added:27-03-2017 13:07:31
Downloads:672

Download Torrent

Ratings:Not Yet Rated (Log in to rate it)

  


Tracker:
udp://tracker.ccc.de:80/announce

This Torrent also has backup trackers
URLSeedersLeechersCompleted
http://tracker.dler.org:6969/announce000
http://ipv4.tracker.harry.lu:80/announce012


File List: 


Comments

No comments still posted

Powered by 10 Hamsters v2-svn -|- Page Generated In 5.114455 secs.
-|- RSS Feed -|- Feed Info
Theme By: Nikkbu