Login
Username:
Password:
[Signup]
[Recover Account]


Browse Torrents

Poll


You must be logged in to view polls



Latest Torrents
Days.of.our.Lives....
- [Size: 511.67 MB]

Radha (2017) 720p ...
- [Size: 1.22 GB]

Salvage.Hunters.S1...
- [Size: 738.71 MB]

Gardeners.World.S5...
- [Size: 1.33 GB]

The.Beechgrove.Gar...
- [Size: 398.67 MB]


Torrent Details For "Sacrilege 2017 1080p WEBRip DD 2.0 x264 ESub"

Sacrilege 2017 1080p WEBRip DD 2.0 x264 ESub

Download this torrent | Magnet Download
Health:
Seeds: 180
Leechers: 68
Completed: 197 
Last Checked: 25-02-2018 07:45:24
External Torrent
Update Stats


Watch-Free-HD     Download

Poster
No poster


Watch-Free-HD     Download

Details
Name:Sacrilege 2017 1080p WEBRip DD 2.0 x264 ESub
Description:

 

General
Format                      : Matroska
Format version              : Version 4 / Version 2
File size                   : 1.53 GiB
Duration                    : 1 h 36 min
Overall bit rate            : 2 283 kb/s

Video
ID                          : 1
Format                      : AVC
Format/Info                 : Advanced Video Codec
Format profile              : [email protected]
Format settings             : CABAC / 4 Ref Frames
Format settings, CABAC      : Yes
Format settings, ReFrames   : 4 frames
Codec ID                    : V_MPEG4/ISO/AVC
Duration                    : 1 h 36 min
Bit rate                    : 2 050 kb/s
Width                       : 1 920 pixels
Height                      : 1 080 pixels
Display aspect ratio        : 16:9
Frame rate mode             : Constant
Frame rate                  : 23.976 (24000/1001) FPS
Color space                 : YUV
Chroma subsampling          : 4:2:0
Bit depth                   : 8 bits
Scan type                   : Progressive
Bits/(Pixel*Frame)          : 0.041
Stream size                 : 1.36 GiB (89%)
Writing library             : x264 core 148 r2708 86b7198
Default                     : Yes
Forced                      : No

Audio
ID                          : 2
Format                      : AC-3
Format/Info                 : Audio Coding 3
Codec ID                    : A_AC3
Duration                    : 1 h 36 min
Bit rate mode               : Constant
Bit rate                    : 256 kb/s
Channel(s)                  : 2 channels
Channel positions           : Front: L R
Sampling rate               : 44.1 kHz
Frame rate                  : 28.711 FPS (1536 SPF)
Bit depth                   : 16 bits
Compression mode            : Lossy
Stream size                 : 176 MiB (11%)
Language                    : English
Service kind                : Complete Main
Default                     : Yes
Forced                      : No

Text
ID                          : 3
Format                      : UTF-8
Codec ID                    : S_TEXT/UTF8
Codec ID/Info               : UTF-8 Plain Text
Duration                    : 1 h 34 min
Bit rate                    : 59 b/s
Count of elements           : 1600
Stream size                 : 41.3 KiB (0%)
Language                    : English
Default                     : Yes
Forced                      : No

Menu
00:00:00.000                : en:1
00:03:22.293                : en:2
00:10:24.048                : en:3
00:18:07.993                : en:4
00:29:18.798                : en:5
00:59:54.647                : en:6
01:18:32.503                : en:7
01:35:32.459                : en:8


         


Category:Movies > HDRips
Lang:English  English
Total Size:1.53 GB
Info Hash:ef460bd9c4e48d83151b48c6389af4933e16d419
Added By:Freaky
Date Added:24-02-2018 23:23:27
Downloads:57

Download Torrent

Ratings:Not Yet Rated (Log in to rate it)


Tracker:
udp://tracker.pirateparty.gr:6969/announce

This Torrent also has backup trackers
URLSeedersLeechersCompleted
http://tracker.opentrackr.org/announce000
http://tracker.vanitycore.co:6969/announce16324
http://public.popcorn-tracker.org:6969/announce251024


File List: 


Comments

No comments still posted

Powered by 10 Hamsters v2-svn -|- Page Generated In 4.201029 secs.
-|- RSS Feed -|- Feed Info
Theme By: Nikkbu