Login
Username:
Password:
[Signup]
[Recover Account]


Browse Torrents

Poll


You must be logged in to view polls



Latest Torrents
Rampage 2018.720p....
- [Size: 1.11 GB]

Rampage 2018.1080p...
- [Size: 3.11 GB]

Red.Sparrow.(2018)...
- [Size: 4.22 GB]

UFC Fight Night 13...
- [Size: 1.97 GB]

The First Purge 20...
- [Size: 1.48 GB]


Torrent Details For "HellBoy Duology (2004-2008) 720p BDRip x264 ESubs -[Dual Audio]-[Hindi+Eng] - 1.9GB - Movcr"

HellBoy Duology (2004-2008) 720p BDRip x264 ESubs -[Dual Audio]-[Hindi+Eng] - 1.9GB - Movcr

Download this torrent | Magnet Download
Health:
Seeds: 40
Leechers: 23
Completed: 273 
Last Checked: 02-03-2018 06:16:23
External Torrent
Update Stats


Watch-Free-HD     Download

Poster


iMDB
Imdb Picture Title: Hellboy II: The Golden Army
Year: 2008
Runtime: 120 minutes
Votes: 221248
Rating: 7.0/10
Language: English, Scottish Gaelic
Country: USA, Germany
All Genres: Action, Adventure, Fantasy, Horror, Sci-Fi
Plot Outline: The mythical world starts a rebellion against humanity in order to rule the Earth, so Hellboy and his team must save the world from the rebellious creatures.
Tagline: Believe it or not - he's the good guy
Director: Guillermo del Toro
Writing By: Guillermo del Toro,Guillermo del Toro,Mike Mignola,Mike Mignola,
Produced By: Lawrence Gordon,Lloyd Levin,Mike Mignola,Mike Richardson,John Swallow,Chris Symes,
Music: Danny Elfman
Cast:
Ron Perlman as Hellboy
Selma Blair as Liz Sherman
Doug Jones as Abe Sapien / Chamberlain / Angel of Death
John Alexander as Johann Krauss / Bethmoora Goblin
James Dodd as Johann Krauss
Seth MacFarlane as Johann
Luke Goss as Prince Nuada
Anna Walton as Princess Nuala
Jeffrey Tambor as Tom Manning
John Hurt as Professor Broom
Trailers:
U.S. teaser trailer: Hellboy II: The Golden Army


Watch-Free-HD     Download

Details
Name:HellBoy Duology (2004-2008) 720p BDRip x264 ESubs -[Dual Audio]-[Hindi+Eng] - 1.9GB - Movcr
Description:
HellBoy Duology (2004-2008) 720p BDRip x264 ESubs -[Dual Audio]-[Hindi+Eng] - 1.9GB - Movcr

 http://www.imdb.com/title/tt0411477/

 
General
Complete name                            : [movcr.com] HellBoy Duology (2004-2008) 720p BDRip x264 ESubs -[Dual Audio]-[Hindi+Eng] - 1.9GB - Movcr\www.movcr.com - Hellboy (2004) 720p BRRip x264 Dual Audio AC3 [Hindi + English] ESub - 900MB - Movcr.mkv
Format                                   : Matroska
Format version                           : Version 4 / Version 2
File size                                : 891 MiB
Duration                                 : 2 h 12 min
Overall bit rate                         : 940 kb/s
Movie name                               : www.movcr.com
Encoded date                             : UTC 2018-02-28 04:31:39
Writing application                      : mkvmerge v20.0.0 ('I Am The Sun') 64-bit
Writing library                          : libebml v1.3.5 + libmatroska v1.4.8

Video
ID                                       : 1
Format                                   : AVC
Format/Info                              : Advanced Video Codec
Format profile                           : [email protected]
Format settings                          : CABAC / 8 Ref Frames
Format settings, CABAC                   : Yes
Format settings, RefFrames               : 8 frames
Codec ID                                 : V_MPEG4/ISO/AVC
Duration                                 : 2 h 12 min
Bit rate                                 : 750 kb/s
Width                                    : 1 280 pixels
Height                                   : 688 pixels
Display aspect ratio                     : 1.85:1
Frame rate mode                          : Constant
Frame rate                               : 23.976 (24000/1001) FPS
Color space                              : YUV
Chroma subsampling                       : 4:2:0
Bit depth                                : 8 bits
Scan type                                : Progressive
Bits/(Pixel*Frame)                       : 0.036
Stream size                              : 710 MiB (80%)
Title                                    : www.movcr.com
Writing library                          : x264 core 120 r2164 da19765
Encoding settings                        : cabac=1 / ref=8 / deblock=1:-2:-1 / analyse=0x3:0x133 / me=umh / subme=9 / psy=1 / psy_rd=1.00:0.00 / mixed_ref=1 / me_range=16 / chroma_me=1 / trellis=2 / 8x8dct=1 / cqm=0 / deadzone=21,11 / fast_pskip=1 / chroma_qp_offset=-2 / threads=12 / sliced_threads=0 / nr=0 / decimate=1 / interlaced=0 / bluray_compat=0 / constrained_intra=0 / bframes=3 / b_pyramid=2 / b_adapt=2 / b_bias=0 / direct=3 / weightb=1 / open_gop=0 / weightp=2 / keyint=240 / keyint_min=23 / scenecut=40 / intra_refresh=0 / rc_lookahead=60 / rc=2pass / mbtree=1 / bitrate=750 / ratetol=1.0 / qcomp=0.60 / qpmin=10 / qpmax=51 / qpstep=4 / cplxblur=20.0 / qblur=0.5 / ip_ratio=1.40 / aq=1:1.00
Language                                 : English
Default                                  : Yes
Forced                                   : No

Audio #1
ID                                       : 2
Format                                   : AC-3
Format/Info                              : Audio Coding 3
Codec ID                                 : A_AC3
Duration                                 : 2 h 12 min
Bit rate mode                            : Constant
Bit rate                                 : 96.0 kb/s
Channel(s)                               : 2 channels
Channel positions                        : Front: L R
Sampling rate                            : 44.1 kHz
Frame rate                               : 28.711 FPS (1536 SPF)
Bit depth                                : 16 bits
Compression mode                         : Lossy
Stream size                              : 91.0 MiB (10%)
Title                                    : www.movcr.com
Language                                 : Hindi
Service kind                             : Complete Main
Default                                  : No
Forced                                   : No

Audio #2
ID                                       : 3
Format                                   : AAC
Format/Info                              : Advanced Audio Codec
Format profile                           : LC
Codec ID                                 : A_AAC-2
Duration                                 : 2 h 12 min
Bit rate                                 : 92.0 kb/s
Channel(s)                               : 2 channels
Channel positions                        : Front: L R
Sampling rate                            : 48.0 kHz
Frame rate                               : 46.875 FPS (1024 SPF)
Compression mode                         : Lossy
Stream size                              : 87.2 MiB (10%)
Title                                    : www.movcr.com
Language                                 : English
Default                                  : Yes
Forced                                   : No

Text
ID                                       : 4
Format                                   : UTF-8
Codec ID                                 : S_TEXT/UTF8
Codec ID/Info                            : UTF-8 Plain Text
Duration                                 : 2 h 5 min
Bit rate                                 : 36 b/s
Count of elements                        : 1211
Stream size                              : 33.2 KiB (0%)
Title                                    : www.movcr.com
Language                                 : English
Default                                  : Yes
Forced                                   : No


 
 
 
 
 
 
 
 
 
 
Category:Movies > South Dub
Lang:Hindi
Total Size:1.83 GB
Info Hash:3ab0ea236d45a32dec60c7aa36a754535a279047
Added By:Kingmaker
Date Added:27-02-2018 17:42:58
Downloads:307

Download Torrent

Ratings:Not Yet Rated (Log in to rate it)


Tracker:
udp://tracker.openbittorrent.com:80/announce


File List: 


Comments

No comments still posted

Powered by 10 Hamsters v2-svn -|- Page Generated In 2.321215 secs.
-|- RSS Feed -|- Feed Info
Theme By: Nikkbu