Login
Username:
Password:
[Signup]
[Recover Account]


Browse Torrents

Poll


You must be logged in to view polls



Latest Torrents
The.Shanghai.Job.2...
- [Size: 612.54 MB]

Dragon.Mountain.20...
- [Size: 532.61 MB]

Life.Of.The.Party....
- [Size: 622.87 MB]

The.Atoning.2017.B...
- [Size: 396.75 MB]

Tully.2018.BDRip.x...
- [Size: 450.57 MB]


Torrent Details For "Total Siyapaa (2014) 720p HDRip x264 - [Telugu + Tamil + Hindi] - 950MB - MovCr"

Total Siyapaa (2014) 720p HDRip x264 - [Telugu + Tamil + Hindi] - 950MB - MovCr

Download this torrent | Magnet Download
Health:
Seeds: 9
Leechers: 19
Completed: 775 
Last Checked: 17-06-2018 12:44:58
External Torrent
Update Stats


Watch-Free-HD     Download

Poster


iMDB
Imdb Picture Original Title: Total Siyapaa
Title: Total Chaos
Year: 2014
Runtime: 108 minutes
Votes: 2475
Rating: 5.0/10
Language: Hindi, Panjabi, English
Country: India
All Genres: Comedy, Drama, Romance
Plot Outline: A young musician hopes to marry his beautiful Indian girlfriend, but his plans hit a snag when her family learns he's Pakistani.
Director: Eeshwar Nivas
Writing By: Dominic Harari,Jayashankarr,Neeraj Pandey,Teresa Pelegri,
Produced By: Shital Bhatia,Chris Bunyan,Deepak Gawade,Neeraj Pandey,Roop Singh Sood,
Music: Sanjoy Chowdhury Ali Zafar
Plot:

Settled in London, Aman hopes to marry Asha, an Indian woman also based in London. He visits her parents' house to seek their permission to marry her. However, his plans to impress the family start failing when they discover that he is a Pakistani.

- Written by Reliance Entertainment

A young musician hopes to marry his beautiful Indian girlfriend, but his plans hit a snag when her family learns he's Pakistani.

- Written by Anonymous
Cast:
Ali Zafar as Aman
Yami Gautam as Asha
Anupam Kher as Asha's Father
Kiron Kher as Asha's Mom
Sara Khan as Jia Singh
Anuj Pandit as Manav Singh
Vic Waghorn as Pimp
Carol McFadden as Lena
Steve Keefe as Percy
Alyan Abbas as Scrawny Pakistani
Trailers:
Theatrical Trailer


Watch-Free-HD     Download

Details
Name:Total Siyapaa (2014) 720p HDRip x264 - [Telugu + Tamil + Hindi] - 950MB - MovCr
Description:
Total Siyapaa (2014) 720p HDRip x264 - [Telugu + Tamil +  Hindi] - 950MB - MovCr

 http://www.imdb.com/title/tt2727028/

 
General
Complete name                            : www.movcr.com - Total Siyapaa (2014) 720p HDRip x264 - [Telugu + Tamil +  Hindi] - 950MB - MovCr.mkv
Format                                   : Matroska
Format version                           : Version 4 / Version 2
File size                                : 967 MiB
Duration                                 : 1 h 46 min
Overall bit rate mode                    : Variable
Overall bit rate                         : 1 275 kb/s
Movie name                               : www.movcr.com
Encoded date                             : UTC 2018-03-01 02:40:01
Writing application                      : mkvmerge v20.0.0 ('I Am The Sun') 64-bit
Writing library                          : libebml v1.3.5 + libmatroska v1.4.8

Video
ID                                       : 1
Format                                   : AVC
Format/Info                              : Advanced Video Codec
Format profile                           : [email protected]
Format settings                          : CABAC / 4 Ref Frames
Format settings, CABAC                   : Yes
Format settings, RefFrames               : 4 frames
Codec ID                                 : V_MPEG4/ISO/AVC
Duration                                 : 1 h 46 min
Bit rate                                 : 1 030 kb/s
Width                                    : 1 280 pixels
Height                                   : 544 pixels
Display aspect ratio                     : 2.35:1
Frame rate mode                          : Constant
Frame rate                               : 25.000 FPS
Color space                              : YUV
Chroma subsampling                       : 4:2:0
Bit depth                                : 8 bits
Scan type                                : Progressive
Bits/(Pixel*Frame)                       : 0.059
Stream size                              : 782 MiB (81%)
Title                                    : www.movcr.com
Writing library                          : x264 core 152 r2851 ba24899
Encoding settings                        : cabac=1 / ref=3 / deblock=1:0:0 / analyse=0x3:0x113 / me=hex / subme=7 / psy=1 / psy_rd=1.00:0.00 / mixed_ref=1 / me_range=16 / chroma_me=1 / trellis=1 / 8x8dct=1 / cqm=0 / deadzone=21,11 / fast_pskip=1 / chroma_qp_offset=-2 / threads=17 / lookahead_threads=2 / sliced_threads=0 / nr=0 / decimate=1 / interlaced=0 / bluray_compat=0 / constrained_intra=0 / bframes=3 / b_pyramid=2 / b_adapt=1 / b_bias=0 / direct=1 / weightb=1 / open_gop=0 / weightp=2 / keyint=250 / keyint_min=25 / scenecut=40 / intra_refresh=0 / rc_lookahead=40 / rc=2pass / mbtree=1 / bitrate=1030 / ratetol=1.0 / qcomp=0.60 / qpmin=0 / qpmax=69 / qpstep=4 / cplxblur=20.0 / qblur=0.5 / ip_ratio=1.40 / aq=1:1.00
Language                                 : Hindi
Default                                  : Yes
Forced                                   : No

Audio #1
ID                                       : 2
Format                                   : MPEG Audio
Format version                           : Version 1
Format profile                           : Layer 3
Format settings                          : Joint stereo / MS Stereo
Codec ID                                 : A_MPEG/L3
Codec ID/Hint                            : MP3
Duration                                 : 1 h 46 min
Bit rate mode                            : Variable
Bit rate                                 : 81.9 kb/s
Nominal bit rate                         : 96.0 kb/s
Channel(s)                               : 2 channels
Sampling rate                            : 48.0 kHz
Frame rate                               : 41.667 FPS (1152 SPF)
Compression mode                         : Lossy
Stream size                              : 62.1 MiB (6%)
Title                                    : www.movcr.com
Writing library                          : LAME3.99r
Encoding settings                        : -m j -V 4 -q 3 -lowpass 15.1 --abr 96
Language                                 : Telugu
Default                                  : Yes
Forced                                   : No

Audio #2
ID                                       : 3
Format                                   : MPEG Audio
Format version                           : Version 1
Format profile                           : Layer 3
Format settings                          : Joint stereo / MS Stereo
Codec ID                                 : A_MPEG/L3
Codec ID/Hint                            : MP3
Duration                                 : 1 h 46 min
Bit rate mode                            : Variable
Bit rate                                 : 96.0 kb/s
Channel(s)                               : 2 channels
Sampling rate                            : 44.1 kHz
Frame rate                               : 38.281 FPS (1152 SPF)
Compression mode                         : Lossy
Stream size                              : 73.3 MiB (8%)
Title                                    : www.movcr.com
Writing library                          : LAME3.99r
Encoding settings                        : -m j -V 4 -q 3 -lowpass 15.1 --abr 96
Language                                 : Tamil
Default                                  : No
Forced                                   : No

Audio #3
ID                                       : 4
Format                                   : MPEG Audio
Format version                           : Version 1
Format profile                           : Layer 3
Format settings                          : Joint stereo / MS Stereo
Codec ID                                 : A_MPEG/L3
Codec ID/Hint                            : MP3
Duration                                 : 1 h 46 min
Bit rate mode                            : Variable
Bit rate                                 : 63.0 kb/s
Nominal bit rate                         : 56.0 kb/s
Channel(s)                               : 2 channels
Sampling rate                            : 48.0 kHz
Frame rate                               : 41.667 FPS (1152 SPF)
Compression mode                         : Lossy
Stream size                              : 47.8 MiB (5%)
Title                                    : www.movcr.com
Writing library                          : LAME3.99r
Encoding settings                        : -m j -V 4 -q 3 -lowpass 10 --abr 56
Language                                 : Hindi
Default                                  : No
Forced                                   : No


 
 
 
 
 
 
 
Category:Movies > South Dub
Lang:Hindi
Total Size:967.50 MB
Info Hash:1152fe2a34f69e471e02cb16595dc44af926bcd1
Added By:Unknown
Date Added:28-02-2018 12:52:13
Downloads:373

Download Torrent

Ratings:Not Yet Rated (Log in to rate it)


Tracker:
udp://tracker.openbittorrent.com:80/announce

This Torrent also has backup trackers
URLSeedersLeechersCompleted
http://share.camoe.cn:8080/announce000
http://t.nyaatracker.com:80/announce100
http://asnet.pw:2710/announce000
http://tracker.tfile.co:80/announce000
http://pt.lax.mx:80/announce000
https://tracker.bt-hash.com:443/announce000
http://grifon.info:80/announce000
http://retracker.spark-rostov.ru:80/announce000
http://tr.kxmp.cf:80/announce000
http://tracker.city9x.com:2710/announce0032
http://tracker.tfile.me:80/announce000
http://retracker.telecom.by:80/announce000
http://tracker.electro-torrent.pl:80/announce000
https://open.kickasstracker.com:443/announce000
http://retracker.mgts.by:80/announce0043
http://retracker.bashtel.ru:80/announce000
http://tracker.devil-torrents.pl:80/announce000
http://torrentsmd.eu:8080/announce000
http://ns349743.ip-91-121-106.eu:80/announce000
http://torrentsmd.me:8080/announce000
http://agusiq-torrents.pl:6969/announce000
http://fxtt.ru:80/announce000


File List: 


Comments

No comments still posted

Powered by 10 Hamsters v2-svn -|- Page Generated In 1.679314 secs.
-|- RSS Feed -|- Feed Info
Theme By: Nikkbu