Login
Username:
Password:
[Signup]
[Recover Account]


Browse Torrents

Poll


You must be logged in to view polls



Latest Torrents
The.Shanghai.Job.2...
- [Size: 612.54 MB]

Dragon.Mountain.20...
- [Size: 532.61 MB]

Life.Of.The.Party....
- [Size: 622.87 MB]

The.Atoning.2017.B...
- [Size: 396.75 MB]

Tully.2018.BDRip.x...
- [Size: 450.57 MB]


Torrent Details For "Teri Meri Kahaani (2012) 720p HDRip x264 ESubs - [Telugu + Tamil + Hindi] - 950MB - MovCr"

Teri Meri Kahaani (2012) 720p HDRip x264 ESubs - [Telugu + Tamil + Hindi] - 950MB - MovCr

Download this torrent | Magnet Download
Health:
Seeds: 222
Leechers: 284
Completed: 135 
Last Checked: 28-02-2018 19:07:48
External Torrent
Update Stats


Watch-Free-HD     Download

Poster


iMDB
Imdb Picture Title: Teri Meri Kahaani
Year: 2012
Runtime: 117 minutes
Votes: 3402
Rating: 4.8/10
Language: Hindi
Country: India
All Genres: Comedy, Drama, Romance
Plot Outline: The true love between a couple in 1910, 1960 and 2012. Their love is so strong that even destiny wants to bring them together.
Tagline: Thrice upon a love story
Director: Kunal Kohli
Writing By: Surabhi Bhatnagar,Surabhi Bhatnagar,Robin Bhatt,Kunal Kohli,
Produced By: Vicky Bahri,Vivek Bhatnagar,Sanjana Chopra,Patel Cyrus,Andrew Heffernan,Kunal Kohli,Sunil Lulla,Ignatius Rapose,Alok Singh,
Music: Sajid Ali Wajid Ali Sajid-Wajid Sandeep Shirodkar
Cast:
Shahid Kapoor as Govind / Javed / Krrish
Priyanka Chopra as Ruksar / Aradhana / Radha
Prachi Desai as Mahi
Neha Sharma as Meera
Raj Singh Arora as
Greg Heffernan as Officer Green
Vrajesh Hirjee as Journalist
Omar Khan as Mihir
Surendra Pal as Aradhana's Father
Shankar Sachdev as
Trailers:
U.S. Version


Watch-Free-HD     Download

Details
Name:Teri Meri Kahaani (2012) 720p HDRip x264 ESubs - [Telugu + Tamil + Hindi] - 950MB - MovCr
Description:
Teri Meri Kahaani (2012) 720p HDRip x264 ESubs - [Telugu + Tamil + Hindi] - 950MB - MovCr

 http://www.imdb.com/title/tt2354407/

 
General
Complete name                            : www.movcr.com - Teri Meri Kahaani (2012) 720p HDRip x264- [Telugu + Tamil + Hindi] - 950MB - MovCr.mkv
Format                                   : Matroska
Format version                           : Version 4 / Version 2
File size                                : 967 MiB
Duration                                 : 1 h 57 min
Overall bit rate mode                    : Variable
Overall bit rate                         : 1 146 kb/s
Movie name                               : www.movcr.com
Encoded date                             : UTC 2018-03-01 03:02:33
Writing application                      : mkvmerge v20.0.0 ('I Am The Sun') 64-bit
Writing library                          : libebml v1.3.5 + libmatroska v1.4.8

Video
ID                                       : 1
Format                                   : AVC
Format/Info                              : Advanced Video Codec
Format profile                           : [email protected]
Format settings                          : CABAC / 4 Ref Frames
Format settings, CABAC                   : Yes
Format settings, RefFrames               : 4 frames
Codec ID                                 : V_MPEG4/ISO/AVC
Duration                                 : 1 h 57 min
Bit rate                                 : 882 kb/s
Width                                    : 1 280 pixels
Height                                   : 544 pixels
Display aspect ratio                     : 2.35:1
Frame rate mode                          : Constant
Frame rate                               : 24.000 FPS
Color space                              : YUV
Chroma subsampling                       : 4:2:0
Bit depth                                : 8 bits
Scan type                                : Progressive
Bits/(Pixel*Frame)                       : 0.053
Stream size                              : 743 MiB (77%)
Title                                    : www.movcr.com
Writing library                          : x264 core 152 r2851 ba24899
Encoding settings                        : cabac=1 / ref=3 / deblock=1:0:0 / analyse=0x3:0x113 / me=hex / subme=7 / psy=1 / psy_rd=1.00:0.00 / mixed_ref=1 / me_range=16 / chroma_me=1 / trellis=1 / 8x8dct=1 / cqm=0 / deadzone=21,11 / fast_pskip=1 / chroma_qp_offset=-2 / threads=17 / lookahead_threads=2 / sliced_threads=0 / nr=0 / decimate=1 / interlaced=0 / bluray_compat=0 / constrained_intra=0 / bframes=3 / b_pyramid=2 / b_adapt=1 / b_bias=0 / direct=1 / weightb=1 / open_gop=0 / weightp=2 / keyint=240 / keyint_min=24 / scenecut=40 / intra_refresh=0 / rc_lookahead=40 / rc=2pass / mbtree=1 / bitrate=882 / ratetol=1.0 / qcomp=0.60 / qpmin=0 / qpmax=69 / qpstep=4 / cplxblur=20.0 / qblur=0.5 / ip_ratio=1.40 / aq=1:1.00
Language                                 : Hindi
Default                                  : Yes
Forced                                   : No

Audio #1
ID                                       : 2
Format                                   : MPEG Audio
Format version                           : Version 1
Format profile                           : Layer 3
Format settings                          : Joint stereo / MS Stereo
Codec ID                                 : A_MPEG/L3
Codec ID/Hint                            : MP3
Duration                                 : 1 h 57 min
Bit rate mode                            : Variable
Bit rate                                 : 84.0 kb/s
Nominal bit rate                         : 96.0 kb/s
Channel(s)                               : 2 channels
Sampling rate                            : 48.0 kHz
Frame rate                               : 41.667 FPS (1152 SPF)
Compression mode                         : Lossy
Stream size                              : 70.8 MiB (7%)
Title                                    : www.movcr.com
Writing library                          : LAME3.99r
Encoding settings                        : -m j -V 4 -q 3 -lowpass 15.1 --abr 96
Language                                 : Telugu
Default                                  : Yes
Forced                                   : No

Audio #2
ID                                       : 3
Format                                   : MPEG Audio
Format version                           : Version 1
Format profile                           : Layer 3
Format settings                          : Joint stereo / MS Stereo
Codec ID                                 : A_MPEG/L3
Codec ID/Hint                            : MP3
Duration                                 : 1 h 57 min
Bit rate mode                            : Variable
Bit rate                                 : 96.0 kb/s
Channel(s)                               : 2 channels
Sampling rate                            : 48.0 kHz
Frame rate                               : 41.667 FPS (1152 SPF)
Compression mode                         : Lossy
Stream size                              : 81.8 MiB (8%)
Title                                    : www.movcr.com
Writing library                          : LAME3.99r
Encoding settings                        : -m j -V 4 -q 3 -lowpass 15.1 --abr 96
Language                                 : Tamil
Default                                  : No
Forced                                   : No

Audio #3
ID                                       : 4
Format                                   : MPEG Audio
Format version                           : Version 1
Format profile                           : Layer 3
Format settings                          : Joint stereo / MS Stereo
Codec ID                                 : A_MPEG/L3
Codec ID/Hint                            : MP3
Duration                                 : 1 h 57 min
Bit rate mode                            : Variable
Bit rate                                 : 80.0 kb/s
Channel(s)                               : 2 channels
Sampling rate                            : 48.0 kHz
Frame rate                               : 41.667 FPS (1152 SPF)
Compression mode                         : Lossy
Stream size                              : 68.3 MiB (7%)
Title                                    : www.movcr.com
Writing library                          : LAME3.99r
Encoding settings                        : -m j -V 4 -q 3 -lowpass 13.5 --abr 80
Language                                 : Hindi
Default                                  : No
Forced                                   : No

Text
ID                                       : 5
Format                                   : UTF-8
Codec ID                                 : S_TEXT/UTF8
Codec ID/Info                            : UTF-8 Plain Text
Duration                                 : 1 h 56 min
Bit rate                                 : 46 b/s
Count of elements                        : 1400
Stream size                              : 39.6 KiB (0%)
Title                                    : www.movcr.com
Language                                 : English
Default                                  : Yes
Forced                                   : No


 
 
 
 
 
 
 
Category:Movies > South Dub
Lang:Telugu
Total Size:966.69 MB
Info Hash:7e65d66465bba8370e421a95b736be46c1aa0fcf
Added By:Kingmaker
Date Added:28-02-2018 14:30:01
Downloads:554

Download Torrent

Ratings:Not Yet Rated (Log in to rate it)


Tracker:
udp://tracker.openbittorrent.com:80/announce

This Torrent also has backup trackers
URLSeedersLeechersCompleted
http://share.camoe.cn:8080/announce000
http://t.nyaatracker.com:80/announce000
http://asnet.pw:2710/announce000
http://tracker.tfile.co:80/announce000
http://pt.lax.mx:80/announce000
https://tracker.bt-hash.com:443/announce000
http://grifon.info:80/announce000
http://retracker.spark-rostov.ru:80/announce000
http://tr.kxmp.cf:80/announce000
http://tracker.city9x.com:2710/announce000
http://tracker.tfile.me:80/announce000
http://retracker.telecom.by:80/announce000
http://tracker.electro-torrent.pl:80/announce000
https://open.kickasstracker.com:443/announce000
http://retracker.mgts.by:80/announce000
http://retracker.bashtel.ru:80/announce000
http://tracker.devil-torrents.pl:80/announce000
http://torrentsmd.eu:8080/announce000
http://ns349743.ip-91-121-106.eu:80/announce000
http://torrentsmd.me:8080/announce000
http://agusiq-torrents.pl:6969/announce000
http://fxtt.ru:80/announce000


File List: 


Comments

No comments still posted

Powered by 10 Hamsters v2-svn -|- Page Generated In 1.636070 secs.
-|- RSS Feed -|- Feed Info
Theme By: Nikkbu