Login
Username:
Password:
[Signup]
[Recover Account]


Browse Torrents

Poll


You must be logged in to view polls



Latest Torrents
Skyscraper 2018 x2...
- [Size: 423.27 MB]

[18+] Karenjit Kau...
- [Size: 2.37 GB]

Robot.Chicken.S09E...
- [Size: 89.67 MB]

The Honey Killer 2...
- [Size: 1.35 GB]

Single AF 2018 108...
- [Size: 923.20 MB]


Torrent Details For "Race 2 2013 Hindi 720p Blu-Ray x264 DTS { TaRa }.mkv"

Race 2 2013 Hindi 720p Blu-Ray x264 DTS { TaRa }.mkv

Download this torrent | Magnet Download
Health:
Seeds: 0
Leechers: 25
Completed:
Last Checked: 26-03-2018 17:23:28
External Torrent
Update Stats


Watch-Free-HD     Download

Poster


Watch-Free-HD     Download

Details
Name:Race 2 2013 Hindi 720p Blu-Ray x264 DTS { TaRa }.mkv
Description:

Quote:

Race 2 2013 Hindi 720p Blu-Ray x264 DTS { TaRa }.mkv


===================================================================
General
Complete name               : Race 2 2013 Hindi 720p Blu-Ray x264 DTS { TaRa }.mkv
Format                      : Matroska
Format version              : Version 4 / Version 2
File size                   : 3.65 GiB
Duration                    : 2 h 25 min
Overall bit rate mode       : Variable
Overall bit rate            : 3 580 kb/s
===================================================================
Video
ID                          : 1
Format                      : AVC
Format/Info                 : Advanced Video Codec
Format profile              : [email protected]
Format settings, CABAC      : Yes
Format settings, ReFrames   : 3 frames
Codec ID                    : V_MPEG4/ISO/AVC
Duration                    : 2 h 25 min
Bit rate mode               : Variable
Bit rate                    : 2 552 kb/s
Maximum bit rate            : 14.0 Mb/s
Width                       : 1 280 pixels
Height                      : 544 pixels
Display aspect ratio        : 2.35:1
Frame rate mode             : Constant
Frame rate                  : 30.000 FPS
Color space                 : YUV
Chroma subsampling          : 4:2:0
Bit depth                   : 8 bits
Scan type                   : Progressive
Bits/(Pixel*Frame)          : 0.122
Stream size                 : 2.60 GiB (71%)
Title                       : .....::::: TaRa :::::.....
Language                    : Hindi
Default                     : Yes
Forced                      : No
===================================================================
Audio
ID                          : 2
Format                      : DTS
Format/Info                 : Digital Theater Systems
Mode                        : 16
Format settings, Endianness : Big
Codec ID                    : A_DTS
Duration                    : 2 h 25 min
Bit rate mode               : Constant
Bit rate                    : 1 025 kb/s
Channel(s)                  : 6 channels
Channel positions           : Front: L C R, Side: L R, LFE
Sampling rate               : 44.1 kHz
Frame rate                  : 86.133 FPS (512 spf)
Bit depth                   : 16 bits
Compression mode            : Lossy
Stream size                 : 1.04 GiB (29%)
Title                       : .....::::: TaRa :::::.....
Language                    : Hindi
Default                     : Yes
Forced                      : No
===================================================================

































Category:Movies > Bollywood
Lang:Hindi
Total Size:3.65 GB
Info Hash:0fd66502692d1990a50d533ce89a5ca4095af17b
Added By:SkTaRa
Date Added:05-04-2017 03:01:55
Downloads:291

Download Torrent

Ratings:Not Yet Rated (Log in to rate it)


Tracker:
udp://tracker.openbittorrent.com:80/announce

This Torrent also has backup trackers
URLSeedersLeechersCompleted
http://www.skyts.net:6969/announce000
http://www.opentrackr.org/announce000
http://mgtracker.org:2710/announce000
http://5.79.83.193:2710/announce000
http://109.121.134.121:1337/announce000


File List: 


Comments

<< Previous      Next >>
1 - 1

[Report] Posted: 10-04-2017 at 10:46:38
kdas92



Uploaded: 0.00 B
Downloaded: 0.00 B
Ratio: ---

Uploader Sedding please.stuck at 92.6%

1 - 1
<< Previous      Next >>


Powered by 10 Hamsters v2-svn -|- Page Generated In 7.011374 secs.
-|- RSS Feed -|- Feed Info
Theme By: Nikkbu