Login
Username:
Password:
[Signup]
[Recover Account]


Browse Torrents

Poll


You must be logged in to view polls



Latest Torrents
The.Shanghai.Job.2...
- [Size: 612.54 MB]

Dragon.Mountain.20...
- [Size: 532.61 MB]

Life.Of.The.Party....
- [Size: 622.87 MB]

The.Atoning.2017.B...
- [Size: 396.75 MB]

Tully.2018.BDRip.x...
- [Size: 450.57 MB]


Torrent Details For "Justice League (2017) BRRip 720p HEVC Dual Audio [Hindi 6ch + Eng 2ch] AAC Esub ~Katyayan~"

Justice League (2017) BRRip 720p HEVC Dual Audio [Hindi 6ch + Eng 2ch] AAC Esub ~Katyayan~

Download this torrent | Magnet Download
Health:
Seeds: 118
Leechers: 72
Completed: 5,627 
Last Checked: 10-03-2018 18:18:37
External Torrent
Update Stats


Watch-Free-HD     Download

Poster


iMDB
Imdb Picture Title: Justice League
Year: 2017
Language: English
Country: USA
All Genres: Action, Adventure, Fantasy, Sci-Fi
Plot Outline: Fueled by his restored faith in humanity and inspired by Superman's selfless act, Bruce Wayne enlists the help of his newfound ally, Diana Prince, to face an even greater enemy.
Tagline: Unite
Director: Zack Snyder
Writing By: Chris Terrio,Joss Whedon,Zack Snyder,Chris Terrio,Bob Kane,Bill Finger,William Moulton Marston,Joe Shuster,Jerry Siegel,
Produced By: Ben Affleck,Jon Berg,Wesley Coller,Jose MarĂ­a de La Puente,Finni Johannsson,Geoff Johns,Charles Roven,Deborah Snyder,Chris Terrio,Andrea Wertheim,Gregor Wilson,
Music: Danny Elfman
Cast:
Gal Gadot as Diana Prince / Wonder Woman
Robin Wright as Antiope
Jason Momoa as Arthur Curry / Aquaman
Connie Nielsen as Queen Hippolyta
Amy Adams as Lois Lane
Ben Affleck as Bruce Wayne / Batman
Ezra Miller as Barry Allen / The Flash
Amber Heard as Mera
Henry Cavill as Clark Kent / Superman
Diane Lane as Martha Kent
Trailers:
Official Heroes Trailer
Comic-Con Sneak Peek
Official Trailer
Special Comic-Con Footage


Watch-Free-HD     Download

Details
Name:Justice League (2017) BRRip 720p HEVC Dual Audio [Hindi 6ch + Eng 2ch] AAC Esub ~Katyayan~
Description:
Justice League (2017) BRRip 720p HEVC Dual Audio [Hindi 6ch + Eng 2ch] AAC Esub ~Katyayan~

 

Thanks To Tmv&Mkvcage For Audio And Video

General
Format                                   : Matroska
Format version                           : Version 4 / Version 2
File size                                : 954 MiB
Duration                                 : 2 h 0 min
Overall bit rate                         : 1 111 kb/s
Movie name                               : Justice League (2017) BRRip 720p HEVC Dual Audio [Hindi 6ch + Eng 2ch] AAC Esub ~Katyayan~
Encoded date                             : UTC 2018-02-28 20:19:19
Writing application                      : mkvmerge v20.0.0 ('I Am The Sun') 32-bit
Writing library                          : libebml v1.3.5 + libmatroska v1.4.8
Attachments                              : Justice League (2017) Poster.jpg

Video
ID                                       : 2
Format                                   : HEVC
Format/Info                              : High Efficiency Video Coding
Format profile                           : [email protected]@Main
Codec ID                                 : V_MPEGH/ISO/HEVC
Duration                                 : 2 h 0 min
Bit rate                                 : 871 kb/s
Width                                    : 1 280 pixels
Height                                   : 720 pixels
Display aspect ratio                     : 16:9
Frame rate mode                          : Constant
Frame rate                               : 23.976 (24000/1001) FPS
Color space                              : YUV
Chroma subsampling                       : 4:2:0
Bit depth                                : 8 bits
Bits/(Pixel*Frame)                       : 0.039
Stream size                              : 748 MiB (78%)
Title                                    : Justice League (2017) BRRip 720p HEVC Dual Audio [Hindi 6ch + Eng 2ch] AAC Esub ~Katyayan~
Writing library                          : x265 2.1:[Windows][GCC 5.3.1][64 bit] 8bit
Encoding settings                        : wpp / ctu=64 / min-cu-size=8 / max-tu-size=32 / tu-intra-depth=1 / tu-inter-depth=1 / me=1 / subme=2 / merange=57 / no-rect / no-amp / max-merge=2 / temporal-mvp / no-early-skip / rskip / rdpenalty=0 / no-tskip / no-tskip-fast / strong-intra-smoothing / no-lossless / no-cu-lossless / no-constrained-intra / fast-intra / open-gop / no-temporal-layers / interlace=0 / keyint=240 / min-keyint=24 / scenecut=40 / rc-lookahead=15 / lookahead-slices=4 / bframes=4 / bframe-bias=0 / b-adapt=0 / ref=3 / limit-refs=3 / no-limit-modes / weightp / no-weightb / aq-mode=1 / qg-size=32 / aq-strength=1.00 / cbqpoffs=0 / crqpoffs=0 / rd=2 / psy-rd=2.00 / rdoq-level=0 / psy-rdoq=0.00 / log2-max-poc-lsb=8 / no-rd-refine / signhide / deblock=0:0 / sao / no-sao-non-deblock / b-pyramid / cutree / no-intra-refresh / rc=2 / pass / bitrate=870 / qcomp=0.60 / qpmin=0 / qpmax=69 / qpstep=4 / cplxblur=20.0 / qblur=0.5 / ipratio=1.40 / pbratio=1.30
Language                                 : English
Default                                  : Yes
Forced                                   : No
Color range                              : Limited
Color primaries                          : BT.709
Transfer characteristics                 : BT.709
Matrix coefficients                      : BT.709

Audio #1
ID                                       : 1
Format                                   : AAC
Format/Info                              : Advanced Audio Codec
Format profile                           : HE-AACv2 / HE-AAC / LC
Codec ID                                 : A_AAC
Duration                                 : 2 h 0 min
Bit rate                                 : 63.9 kb/s
Channel(s)                               : 2 channels / 9 channels / 9 channels
Channel positions                        : Front: L R / , Side: 6, Back: L C R / , Side: 6, Back: L C R
Sampling rate                            : 48.0 kHz / 48.0 kHz / 24.0 kHz
Frame rate                               : 23.438 FPS (1024 spf)
Compression mode                         : Lossy
Delay relative to video                  : 31 ms
Stream size                              : 54.9 MiB (6%)
Title                                    : ~Katyayan~
Language                                 : English
Default                                  : No
Forced                                   : No

Audio #2
ID                                       : 4
Format                                   : AAC
Format/Info                              : Advanced Audio Codec
Format profile                           : LC
Codec ID                                 : A_AAC
Duration                                 : 1 h 59 min
Bit rate                                 : 175 kb/s
Channel(s)                               : 6 channels
Channel positions                        : Front: L C R, Side: L R, LFE
Sampling rate                            : 44.1 kHz
Frame rate                               : 43.066 FPS (1024 spf)
Compression mode                         : Lossy
Stream size                              : 149 MiB (16%)
Title                                    : ~Katyayan~
Language                                 : Hindi
Default                                  : Yes
Forced                                   : Yes

Text
ID                                       : 3
Format                                   : UTF-8
Codec ID                                 : S_TEXT/UTF8
Codec ID/Info                            : UTF-8 Plain Text
Duration                                 : 1 h 59 min
Bit rate                                 : 46 b/s
Count of elements                        : 1251
Stream size                              : 41.0 KiB (0%)
Title                                    : ~Katyayan~
Language                                 : English
Default                                  : Yes
Forced                                   : Yes

 
Category:Movies > South Dub
Lang:Hindi
Total Size:954.07 MB
Info Hash:6eed5b43c3735d2226364ae1139079bb9bc4e4a3
Added By:Shrawankk
Date Added:28-02-2018 20:40:14
Downloads:316

Download Torrent

Ratings:Not Yet Rated (Log in to rate it)


Tracker:
http://bigfoot1942.sektori.org:6969/announce

This Torrent also has backup trackers
URLSeedersLeechersCompleted
http://bigfoot1942.sektori.org:6969/announce000
http://tracker2.wasabii.com.tw:6969/announce000
http://tracker.opentrackr.org/announce000
http://announce.torrentsmd.com:6969/announce000
http://tracker.trackerfix.com/announce000
http://tracker.opentrackr.org/announce000


File List: 


Comments

No comments still posted

Powered by 10 Hamsters v2-svn -|- Page Generated In 0.523438 secs.
-|- RSS Feed -|- Feed Info
Theme By: Nikkbu