Login
Username:
Password:
[Signup]
[Recover Account]


Browse Torrents

Poll


You must be logged in to view polls



Latest Torrents
Rampage 2018.720p....
- [Size: 1.11 GB]

Rampage 2018.1080p...
- [Size: 3.11 GB]

Red.Sparrow.(2018)...
- [Size: 4.22 GB]

UFC Fight Night 13...
- [Size: 1.97 GB]

The First Purge 20...
- [Size: 1.48 GB]


Torrent Details For "Hyper (Eedo Rakam Aado Rakam) 2018 Hindi Dubbed Untouched WEBHD 1080p Team Jio"

Hyper (Eedo Rakam Aado Rakam) 2018 Hindi Dubbed Untouched WEBHD 1080p Team Jio

Download this torrent | Magnet Download
Health:
Seeds: 17
Leechers: 71
Completed: 14 
Last Checked: 03-03-2018 05:43:56
External Torrent
Update Stats


Watch-Free-HD     Download

Poster


Watch-Free-HD     Download

Details
Name:Hyper (Eedo Rakam Aado Rakam) 2018 Hindi Dubbed Untouched WEBHD 1080p Team Jio
Description:




Quote:

Format                                   : MPEG-4
Format profile                           : Base Media
Codec ID                                 : isom (isom/iso2/avc1/mp41)
File size                                : 1.31 GiB
Duration                                 : 1 h 47 min
Overall bit rate                         : 1 749 kb/s
Writing application                      : Lavf56.23.105

Video
ID                                       : 1
Format                                   : AVC
Format/Info                              : Advanced Video Codec
Format profile                           : [email protected]
Format settings                          : CABAC / 3 Ref Frames
Format settings, CABAC                   : Yes
Format settings, RefFrames               : 3 frames
Codec ID                                 : avc1
Codec ID/Info                            : Advanced Video Coding
Duration                                 : 1 h 47 min
Bit rate                                 : 1 617 kb/s
Width                                    : 1 920 pixels
Height                                   : 1 080 pixels
Display aspect ratio                     : 16:9
Frame rate mode                          : Constant
Frame rate                               : 25.000 FPS
Color space                              : YUV
Chroma subsampling                       : 4:2:0
Bit depth                                : 8 bits
Scan type                                : Progressive
Bits/(Pixel*Frame)                       : 0.031
Stream size                              : 1.21 GiB (92%)
Color range                              : Limited
Color primaries                          : BT.709
Transfer characteristics                 : BT.709
Matrix coefficients                      : BT.709

Audio
ID                                       : 2
Format                                   : AAC
Format/Info                              : Advanced Audio Codec
Format profile                           : LC
Codec ID                                 : mp4a-40-2
Duration                                 : 1 h 47 min
Bit rate mode                            : Constant
Bit rate                                 : 126 kb/s
Channel(s)                               : 2 channels
Channel positions                        : Front: L R
Sampling rate                            : 44.1 kHz
Frame rate                               : 43.066 FPS (1024 SPF)
Compression mode                         : Lossy
Stream size                              : 96.2 MiB (7%)
Default                                  : Yes
Alternate group                          : 1

 
 
 
 
 
Category:Movies > South Dub
Lang:Hindi
Total Size:1.31 GB
Info Hash:b48cd4f0182b21da481e9566b633089e3c1c89af
Added By:TeamJio
Date Added:03-03-2018 03:29:10
Downloads:605

Download Torrent

Ratings:Not Yet Rated (Log in to rate it)


Tracker:
https://jiotorrents.net/announce.php?pk=a5b7d3d9ebc87c84db8da7561fde639d520d476d


File List: 


Comments

No comments still posted

Powered by 10 Hamsters v2-svn -|- Page Generated In 3.775376 secs.
-|- RSS Feed -|- Feed Info
Theme By: Nikkbu