Login
Username:
Password:
[Signup]
[Recover Account]


Browse Torrents

Poll


You must be logged in to view polls



Latest Torrents
The.Shanghai.Job.2...
- [Size: 612.54 MB]

Dragon.Mountain.20...
- [Size: 532.61 MB]

Life.Of.The.Party....
- [Size: 622.87 MB]

The.Atoning.2017.B...
- [Size: 396.75 MB]

Tully.2018.BDRip.x...
- [Size: 450.57 MB]


Torrent Details For "Dus Ka Dum (2016) Hindi Dubbed 1080p Team Jio"

Dus Ka Dum (2016) Hindi Dubbed 1080p Team Jio

Download this torrent | Magnet Download
Health:
Seeds: 10
Leechers: 45
Completed:
Last Checked: 04-03-2018 18:01:07
External Torrent
Update Stats


Watch-Free-HD     Download

Poster


Watch-Free-HD     Download

Details
Name:Dus Ka Dum (2016) Hindi Dubbed 1080p Team Jio
Description:




Quote:

Format                                   : MPEG-4
Format profile                           : Base Media / Version 2
Codec ID                                 : mp42 (isom/iso2/avc1/mp41)
File size                                : 2.97 GiB
Duration                                 : 2 h 16 min
Overall bit rate mode                    : Variable
Overall bit rate                         : 3 115 kb/s
Encoded date                             : UTC 2018-03-04 11:17:37
Tagged date                              : UTC 2018-03-04 11:17:37
Writing application                      : HandBrake 1.0.7 2017040900

Video
ID                                       : 1
Format                                   : AVC
Format/Info                              : Advanced Video Codec
Format profile                           : [email protected]
Format settings                          : CABAC / 4 Ref Frames
Format settings, CABAC                   : Yes
Format settings, RefFrames               : 4 frames
Codec ID                                 : avc1
Codec ID/Info                            : Advanced Video Coding
Duration                                 : 2 h 16 min
Bit rate                                 : 2 950 kb/s
Width                                    : 1 920 pixels
Height                                   : 968 pixels
Display aspect ratio                     : 1.983
Frame rate mode                          : Constant
Frame rate                               : 25.000 FPS
Color space                              : YUV
Chroma subsampling                       : 4:2:0
Bit depth                                : 8 bits
Scan type                                : Progressive
Bits/(Pixel*Frame)                       : 0.063
Stream size                              : 2.82 GiB (95%)
Writing library                          : x264 core 148 r2708 86b7198
Encoding settings                        : cabac=1 / ref=1 / deblock=1:0:0 / analyse=0x1:0x111 / me=hex / subme=2 / psy=1 / psy_rd=1.00:0.00 / mixed_ref=0 / me_range=16 / chroma_me=1 / trellis=0 / 8x8dct=0 / cqm=0 / deadzone=21,11 / fast_pskip=1 / chroma_qp_offset=0 / threads=18 / lookahead_threads=6 / sliced_threads=0 / nr=0 / decimate=1 / interlaced=0 / bluray_compat=0 / constrained_intra=0 / bframes=3 / b_pyramid=2 / b_adapt=1 / b_bias=0 / direct=1 / weightb=1 / open_gop=0 / weightp=1 / keyint=250 / keyint_min=25 / scenecut=40 / intra_refresh=0 / rc_lookahead=10 / rc=crf / mbtree=1 / crf=24.0 / qcomp=0.60 / qpmin=0 / qpmax=69 / qpstep=4 / vbv_maxrate=20000 / vbv_bufsize=25000 / crf_max=0.0 / nal_hrd=none / filler=0 / ip_ratio=1.40 / aq=1:1.00
Encoded date                             : UTC 2018-03-04 11:17:37
Tagged date                              : UTC 2018-03-04 11:17:37
Color range                              : Limited
Color primaries                          : BT.709
Transfer characteristics                 : BT.709
Matrix coefficients                      : BT.709

Audio
ID                                       : 2
Format                                   : AAC
Format/Info                              : Advanced Audio Codec
Format profile                           : LC
Codec ID                                 : mp4a-40-2
Duration                                 : 2 h 16 min
Bit rate mode                            : Variable
Bit rate                                 : 159 kb/s
Channel(s)                               : 2 channels
Channel positions                        : Front: L R
Sampling rate                            : 48.0 kHz
Frame rate                               : 46.875 FPS (1024 SPF)
Compression mode                         : Lossy
Stream size                              : 155 MiB (5%)
Title                                    : Stereo / Stereo
Default                                  : Yes
Alternate group                          : 1
Encoded date                             : UTC 2018-03-04 11:17:37
Tagged date                              : UTC 2018-03-04 11:17:37

           
Category:Movies > South Dub
Lang:Hindi
Total Size:2.97 GB
Info Hash:60f57ea44ada27c12fc8d1e33e3ca6213c2c5251
Added By:TeamJio
Date Added:04-03-2018 13:48:18
Downloads:591

Download Torrent

Ratings:Not Yet Rated (Log in to rate it)


Tracker:
https://jiotorrents.net/announce.php?pk=a5b7d3d9ebc87c84db8da7561fde639d520d476d


File List: 


Comments

No comments still posted

Powered by 10 Hamsters v2-svn -|- Page Generated In 1.181788 secs.
-|- RSS Feed -|- Feed Info
Theme By: Nikkbu