Login
Username:
Password:
[Signup]
[Recover Account]


Browse Torrents

Poll


You must be logged in to view polls



Latest Torrents
The.Shanghai.Job.2...
- [Size: 612.54 MB]

Dragon.Mountain.20...
- [Size: 532.61 MB]

Life.Of.The.Party....
- [Size: 622.87 MB]

The.Atoning.2017.B...
- [Size: 396.75 MB]

Tully.2018.BDRip.x...
- [Size: 450.57 MB]


Torrent Details For "Rambo Straight Forward (Santhu Straight Forward) (2018) Hindi Dubbed HDRip x264 AAC - 800MB - ..."

Rambo Straight Forward (Santhu Straight Forward) (2018) Hindi Dubbed HDRip x264 AAC - 800MB - ...

Download this torrent | Magnet Download
Health:
Seeds: 1,317
Leechers: 413
Completed: 10,294 
Last Checked: 14-03-2018 07:34:33
External Torrent
Update Stats


Watch-Free-HD     Download

Poster


iMDB
Imdb Picture Title: Santhu Straight Forward
Year: 2016
Runtime: 159 minutes
Votes: 115
Rating: 7.2/10
Language: Kannada
Country: India
All Genres: Action, Drama, Romance
Plot Outline: Santhu is the typical do-gooder youngster, who is also the angry young hero. He falls for college student Ananya after a series of chance meetings. But, there's also dreaded don Deva in the picture forming the triangle.
Director: Mahesh Rao
Writing By: Mahesh Rao,Anilkumar,Yograj Bhat,Ghouse Peer,Chethan Kumar,
Produced By: K. Manju,
Music: V. Harikrishna
Plot:

Santhu Staight Foward is a perfect example of a commercial film. It follows a safe storyline -- boy meets girl story, and with a little help from friends and a loving family, the two end up together. All a steady march towards a happy ending. Though it is a tried and tested template, this still makes for a one-time watch because Yash keeps the show going. The title character Santhu is a carefree youngster, who believes in being straight forward and his parents are proud of their son's open nature. Enter Ananya (Radhika Pandit) an architecture student and it is love at first sight for Santhu. But his dreams suffer a crushing blow when he gets to know Ananya is engaged to Deva (Shyaam) a builder and her maternal uncle. The rest of the story is whether Santhu plans to propose to Ananya and how he wins her over.

Santhu is the typical do-gooder youngster, who is also the angry young hero. He falls for college student Ananya after a series of chance meetings. But, there's also dreaded don Deva in the picture forming the triangle.


Cast:
Yash as
Radhika Pandit as
Shaam as
Devaraj as
Saikumar as
Anant Nag as
P. Ravi Shankar as
Thilak as
Sumithramma as
Veena Sundar as


Watch-Free-HD     Download

Details
Name:Rambo Straight Forward (Santhu Straight Forward) (2018) Hindi Dubbed HDRip x264 AAC - 800MB - ...
Description:
Rambo Straight Forward (Santhu Straight Forward)  (2018) Hindi Dubbed HDRip x264 AAC - 800MB - MovCr Exclusive

 http://www.imdb.com/title/tt6203612/

 
General
Complete name                            : www.movcr.com - Rambo Straight Forward (Santhu Straight Forward)  (2018) Hindi Dubbed HDRip x264 AAC - 800MB - MovCr Exclusive.mkv
Format                                   : Matroska
Format version                           : Version 4 / Version 2
File size                                : 768 MiB
Duration                                 : 2 h 39 min
Overall bit rate                         : 674 kb/s
Movie name                               : www.movcr.com
Encoded date                             : UTC 2018-03-06 00:12:20
Writing application                      : mkvmerge v20.0.0 ('I Am The Sun') 64-bit
Writing library                          : libebml v1.3.5 + libmatroska v1.4.8

Video
ID                                       : 1
Format                                   : AVC
Format/Info                              : Advanced Video Codec
Format profile                           : [email protected]
Format settings                          : CABAC / 4 Ref Frames
Format settings, CABAC                   : Yes
Format settings, RefFrames               : 4 frames
Codec ID                                 : V_MPEG4/ISO/AVC
Duration                                 : 2 h 39 min
Bit rate                                 : 546 kb/s
Width                                    : 640 pixels
Height                                   : 272 pixels
Display aspect ratio                     : 2.35:1
Frame rate mode                          : Constant
Frame rate                               : 25.000 FPS
Color space                              : YUV
Chroma subsampling                       : 4:2:0
Bit depth                                : 8 bits
Scan type                                : Progressive
Bits/(Pixel*Frame)                       : 0.125
Stream size                              : 619 MiB (81%)
Title                                    : www.movcr.com
Writing library                          : x264 core 146 r2538 121396c
Encoding settings                        : cabac=1 / ref=2 / deblock=1:0:0 / analyse=0x3:0x113 / me=hex / subme=6 / psy=1 / psy_rd=1.00:0.00 / mixed_ref=1 / me_range=16 / chroma_me=1 / trellis=1 / 8x8dct=1 / cqm=0 / deadzone=21,11 / fast_pskip=1 / chroma_qp_offset=-2 / threads=6 / lookahead_threads=1 / sliced_threads=0 / nr=0 / decimate=1 / interlaced=0 / bluray_compat=0 / constrained_intra=0 / bframes=3 / b_pyramid=2 / b_adapt=1 / b_bias=0 / direct=1 / weightb=1 / open_gop=0 / weightp=1 / keyint=250 / keyint_min=25 / scenecut=40 / intra_refresh=0 / rc_lookahead=30 / rc=abr / mbtree=1 / bitrate=546 / ratetol=1.0 / qcomp=0.60 / qpmin=0 / qpmax=69 / qpstep=4 / vbv_maxrate=62500 / vbv_bufsize=78125 / nal_hrd=none / filler=0 / ip_ratio=1.40 / aq=1:1.00
Default                                  : Yes
Forced                                   : No

Audio
ID                                       : 2
Format                                   : AAC
Format/Info                              : Advanced Audio Codec
Format profile                           : LC
Codec ID                                 : A_AAC-2
Duration                                 : 2 h 39 min
Bit rate                                 : 128 kb/s
Channel(s)                               : 2 channels
Channel positions                        : Front: L R
Sampling rate                            : 44.1 kHz
Frame rate                               : 43.066 FPS (1024 SPF)
Compression mode                         : Lossy
Delay relative to video                  : -80 ms
Stream size                              : 146 MiB (19%)
Title                                    : www.movcr.com
Language                                 : Hindi
Default                                  : Yes
Forced                                   : No


 
 
 
 
 
 
 
 
 
 
 
Category:Movies > South Dub
Lang:Hindi
Total Size:767.78 MB
Info Hash:0f277ed70129a8a2782ae7870d709a9190711225
Added By:Kingmaker
Date Added:05-03-2018 10:47:32
Downloads:902

Download Torrent

Ratings:Not Yet Rated (Log in to rate it)


Tracker:
udp://tracker.openbittorrent.com:80/announce

This Torrent also has backup trackers
URLSeedersLeechersCompleted
http://share.camoe.cn:8080/announce000
http://t.nyaatracker.com:80/announce000
http://asnet.pw:2710/announce000
http://tracker.tfile.co:80/announce000
http://pt.lax.mx:80/announce000
https://tracker.bt-hash.com:443/announce000
http://grifon.info:80/announce000
http://retracker.spark-rostov.ru:80/announce000
http://tr.kxmp.cf:80/announce000
http://tracker.city9x.com:2710/announce3815201
http://tracker.tfile.me:80/announce000
http://retracker.telecom.by:80/announce000
http://tracker.electro-torrent.pl:80/announce23356
https://open.kickasstracker.com:443/announce1110
http://retracker.mgts.by:80/announce5716348
http://retracker.bashtel.ru:80/announce000
http://tracker.devil-torrents.pl:80/announce000
http://torrentsmd.eu:8080/announce1000
http://ns349743.ip-91-121-106.eu:80/announce000
http://torrentsmd.me:8080/announce1000
http://agusiq-torrents.pl:6969/announce3816469
http://fxtt.ru:80/announce22922


File List: 


Comments

No comments still posted

Powered by 10 Hamsters v2-svn -|- Page Generated In 2.133959 secs.
-|- RSS Feed -|- Feed Info
Theme By: Nikkbu