Login
Username:
Password:
[Signup]
[Recover Account]


Browse Torrents

Poll


You must be logged in to view polls



Latest Torrents
Raazi 2018 Hindi 7...
- [Size: 1.26 GB]

Penny.Palabras.201...
- [Size: 1.30 GB]

Bug.Juice.My.Adven...
- [Size: 183.23 MB]

Yuddham Sharanam (...
- [Size: 1.28 GB]

Marvels.Spider-Man...
- [Size: 178.49 MB]


Torrent Details For "Ekk Deewana Tha (2012) Hindi 720p WebHDRip x264 AAC { TaRa }.mkv"

Ekk Deewana Tha (2012) Hindi 720p WebHDRip x264 AAC { TaRa }.mkv

Download this torrent | Magnet Download
Health:
Seeds: 0
Leechers: 2
Completed:
Last Checked: 19-02-2018 19:19:03
External Torrent
Update Stats


Watch-Free-HD     Download

Poster


Watch-Free-HD     Download

Details
Name:Ekk Deewana Tha (2012) Hindi 720p WebHDRip x264 AAC { TaRa }.mkv
Description:

Quote:

Ekk Deewana Tha (2012) Hindi 720p WebHDRip x264 AAC { TaRa }.mkv


===================================================================
General
Complete name               : Ekk Deewana Tha (2012) Hindi 720p WebHDRip x264 AAC { TaRa }.mkv
Format                      : Matroska
Format version              : Version 4 / Version 2
File size                   : 1.98 GiB
Duration                    : 2 h 22 min
Overall bit rate mode       : Variable
Overall bit rate            : 1 985 kb/s
===================================================================
Video
ID                          : 1
Format                      : AVC
Format/Info                 : Advanced Video Codec
Format profile              : [email protected]
Format settings, CABAC      : Yes
Format settings, ReFrames   : 3 frames
Codec ID                    : V_MPEG4/ISO/AVC
Duration                    : 2 h 22 min
Bit rate mode               : Variable
Bit rate                    : 1 841 kb/s
Maximum bit rate            : 14.0 Mb/s
Width                       : 1 280 pixels
Height                      : 544 pixels
Display aspect ratio        : 2.35:1
Frame rate mode             : Constant
Frame rate                  : 30.000 FPS
Color space                 : YUV
Chroma subsampling          : 4:2:0
Bit depth                   : 8 bits
Scan type                   : Progressive
Bits/(Pixel*Frame)          : 0.088
Stream size                 : 1.84 GiB (93%)
Title                       : .....::::: TaRa :::::.....
Language                    : Hindi
Default                     : Yes
Forced                      : No
===================================================================
Audio
ID                          : 2
Format                      : AAC
Format/Info                 : Advanced Audio Codec
Format profile              : LC
Codec ID                    : A_AAC
Duration                    : 2 h 22 min
Bit rate                    : 141 kb/s
Channel(s)                  : 2 channels
Channel positions           : Front: L R
Sampling rate               : 44.1 kHz
Frame rate                  : 43.066 FPS (1024 spf)
Compression mode            : Lossy
Stream size                 : 144 MiB (7%)
Title                       : .....::::: TaRa :::::.....
Language                    : Hindi
Default                     : Yes
Forced                      : No
===================================================================



                                                           










Category:Movies > Bollywood
Lang:Hindi
Total Size:1.98 GB
Info Hash:62477f6f4fdc80bfb10193c0a311c12afc6b7933
Added By:SkTaRa
Date Added:05-04-2017 07:19:32
Downloads:252

Download Torrent

Ratings:Not Yet Rated (Log in to rate it)


Tracker:
udp://tracker.ccc.de:80/announce

This Torrent also has backup trackers
URLSeedersLeechersCompleted
http://tracker.dler.org:6969/announce000
http://ipv4.tracker.harry.lu:80/announce000


File List: 


Comments

No comments still posted

Powered by 10 Hamsters v2-svn -|- Page Generated In 6.236291 secs.
-|- RSS Feed -|- Feed Info
Theme By: Nikkbu