Login
Username:
Password:
[Signup]
[Recover Account]


Browse Torrents

Poll


You must be logged in to view polls



Latest Torrents
The.Shanghai.Job.2...
- [Size: 612.54 MB]

Dragon.Mountain.20...
- [Size: 532.61 MB]

Life.Of.The.Party....
- [Size: 622.87 MB]

The.Atoning.2017.B...
- [Size: 396.75 MB]

Tully.2018.BDRip.x...
- [Size: 450.57 MB]


Torrent Details For "Vaigai Express (2017) Hindi Dubbed 720p HDRip x264 AAC - 1.2GB - MovCr"

Vaigai Express (2017) Hindi Dubbed 720p HDRip x264 AAC - 1.2GB - MovCr

Download this torrent | Magnet Download
Health:
Seeds: 100
Leechers: 165
Completed: 86 
Last Checked: 10-03-2018 21:38:31
External Torrent
Update Stats


Watch-Free-HD     Download

Poster


iMDB
Imdb Picture Title: Vaigai Express
Year: 2017
Votes: 8
Rating: 4.6/10
Language: Tamil
Country: India
All Genres: Thriller
Director: Shaji Kailas
Writing By: Prabhakar,
Produced By: Makkal Paasarai,
Music: S. Thaman
Cast:
Archana as
M.S. Bhaskar as
Madhan Bob as
Neetu Chandra as Radhika and Jyothika
Iniya as Swapnapriya
Ramesh Khanna as
Manobala as
Nassar as
Pawan as
R.K. as Sharafudeen Rahman


Watch-Free-HD     Download

Details
Name:Vaigai Express (2017) Hindi Dubbed 720p HDRip x264 AAC - 1.2GB - MovCr
Description:
Vaigai Express (2017) Hindi Dubbed 720p HDRip x264 AAC - 1.2GB - MovCr

 http://www.imdb.com/title/tt6984740/

 
General
Complete name                            : www.movcr.com - Vaigai Express (2017) Hindi Dubbed 720p HDRip x264 AAC - 1.2GB - MovCr.mkv
Format                                   : Matroska
Format version                           : Version 4 / Version 2
File size                                : 1.24 GiB
Duration                                 : 2 h 6 min
Overall bit rate                         : 1 402 kb/s
Movie name                               : www.movcr.com
Encoded date                             : UTC 2018-03-11 06:53:30
Writing application                      : mkvmerge v20.0.0 ('I Am The Sun') 64-bit
Writing library                          : libebml v1.3.5 + libmatroska v1.4.8

Video
ID                                       : 1
Format                                   : AVC
Format/Info                              : Advanced Video Codec
Format profile                           : [email protected]
Format settings                          : CABAC / 3 Ref Frames
Format settings, CABAC                   : Yes
Format settings, RefFrames               : 3 frames
Codec ID                                 : V_MPEG4/ISO/AVC
Duration                                 : 2 h 6 min
Bit rate                                 : 1 274 kb/s
Width                                    : 1 280 pixels
Height                                   : 720 pixels
Display aspect ratio                     : 16:9
Frame rate mode                          : Constant
Frame rate                               : 24.000 FPS
Color space                              : YUV
Chroma subsampling                       : 4:2:0
Bit depth                                : 8 bits
Scan type                                : Progressive
Bits/(Pixel*Frame)                       : 0.058
Stream size                              : 1.12 GiB (91%)
Title                                    : www.movcr.com
Default                                  : Yes
Forced                                   : No
Color range                              : Limited
Color primaries                          : BT.709
Transfer characteristics                 : BT.709
Matrix coefficients                      : BT.709

Audio
ID                                       : 2
Format                                   : AAC
Format/Info                              : Advanced Audio Codec
Format profile                           : LC
Codec ID                                 : A_AAC-2
Duration                                 : 2 h 6 min
Bit rate                                 : 126 kb/s
Channel(s)                               : 2 channels
Channel positions                        : Front: L R
Sampling rate                            : 44.1 kHz
Frame rate                               : 43.066 FPS (1024 SPF)
Compression mode                         : Lossy
Stream size                              : 113 MiB (9%)
Title                                    : www.movcr.com
Language                                 : Hindi
Default                                  : Yes
Forced                                   : No


 
 
 
 
 
 
 
Category:Movies > South Dub
Lang:Hindi
Total Size:1.24 GB
Info Hash:95409016c44792dde90e1998a669e59c93994915
Added By:Kingmaker
Date Added:10-03-2018 16:58:27
Downloads:450

Download Torrent

Ratings:Not Yet Rated (Log in to rate it)


Tracker:
udp://tracker.openbittorrent.com:80/announce

This Torrent also has backup trackers
URLSeedersLeechersCompleted
http://share.camoe.cn:8080/announce000
http://t.nyaatracker.com:80/announce000
http://asnet.pw:2710/announce000
http://tracker.tfile.co:80/announce000
http://pt.lax.mx:80/announce000
https://tracker.bt-hash.com:443/announce000
http://grifon.info:80/announce000
http://retracker.spark-rostov.ru:80/announce000
http://tr.kxmp.cf:80/announce000
http://tracker.city9x.com:2710/announce000
http://tracker.tfile.me:80/announce000
http://retracker.telecom.by:80/announce000
http://tracker.electro-torrent.pl:80/announce000
https://open.kickasstracker.com:443/announce000
http://retracker.mgts.by:80/announce000
http://retracker.bashtel.ru:80/announce000
http://tracker.devil-torrents.pl:80/announce000
http://torrentsmd.eu:8080/announce000
http://ns349743.ip-91-121-106.eu:80/announce000
http://torrentsmd.me:8080/announce000
http://agusiq-torrents.pl:6969/announce000
http://fxtt.ru:80/announce000


File List: 


Comments

No comments still posted

Powered by 10 Hamsters v2-svn -|- Page Generated In 1.533872 secs.
-|- RSS Feed -|- Feed Info
Theme By: Nikkbu