Login
Username:
Password:
[Signup]
[Recover Account]


Browse Torrents

Poll


You must be logged in to view polls



Latest Torrents
The.Shanghai.Job.2...
- [Size: 612.54 MB]

Dragon.Mountain.20...
- [Size: 532.61 MB]

Life.Of.The.Party....
- [Size: 622.87 MB]

The.Atoning.2017.B...
- [Size: 396.75 MB]

Tully.2018.BDRip.x...
- [Size: 450.57 MB]


Torrent Details For "Agam Puram (2010) Hindi Dubbed 720p WEBHD x264 AAC ESubs - 1.5GB - MovCr"

Agam Puram (2010) Hindi Dubbed 720p WEBHD x264 AAC ESubs - 1.5GB - MovCr

Download this torrent | Magnet Download
Health:
Seeds: 55
Leechers: 317
Completed:
Last Checked: 10-03-2018 20:11:40
External Torrent
Update Stats


Watch-Free-HD     Download

Poster


iMDB
Original Title: Agam Puram
Title: Two-Face
Year: 2010
Language: Tamil
Country: India
All Genres: Action
Director: Thirumalai

Produced By: Thirumalai,
Music: Sundar Babu
Cast:
Anandraj as Muthuraj
Megha Khan as
Meera Krishna as
Meenakshi as Nadia
Charan Raj as
L. Raja as
Shaam as Thiru
Kashmira Shah as


Watch-Free-HD     Download

Details
Name:Agam Puram (2010) Hindi Dubbed 720p WEBHD x264 AAC ESubs - 1.5GB - MovCr
Description:
Agam Puram (2010) Hindi Dubbed 720p WEBHD x264 AAC ESubs - 1.5GB - MovCr

 http://www.imdb.com/title/tt4327470/

 
General
Complete name                            : www.movcr.com - Agam Puram (2010) Hindi Dubbed 720p WEBHD x264 AAC ESubs - 1.5GB - MovCr.mkv
Format                                   : Matroska
Format version                           : Version 4 / Version 2
File size                                : 1.54 GiB
Duration                                 : 1 h 51 min
Overall bit rate                         : 1 979 kb/s
Movie name                               : www.movcr.com
Encoded date                             : UTC 2018-03-11 07:17:26
Writing application                      : mkvmerge v20.0.0 ('I Am The Sun') 64-bit
Writing library                          : libebml v1.3.5 + libmatroska v1.4.8

Video
ID                                       : 1
Format                                   : AVC
Format/Info                              : Advanced Video Codec
Format profile                           : [email protected]
Format settings                          : CABAC / 3 Ref Frames
Format settings, CABAC                   : Yes
Format settings, RefFrames               : 3 frames
Codec ID                                 : V_MPEG4/ISO/AVC
Duration                                 : 1 h 51 min
Bit rate                                 : 1 851 kb/s
Width                                    : 1 280 pixels
Height                                   : 720 pixels
Display aspect ratio                     : 16:9
Frame rate mode                          : Constant
Frame rate                               : 24.000 FPS
Color space                              : YUV
Chroma subsampling                       : 4:2:0
Bit depth                                : 8 bits
Scan type                                : Progressive
Bits/(Pixel*Frame)                       : 0.084
Stream size                              : 1.44 GiB (94%)
Title                                    : www.movcr.com
Default                                  : Yes
Forced                                   : No
Color range                              : Limited
Color primaries                          : BT.709
Transfer characteristics                 : BT.709
Matrix coefficients                      : BT.709

Audio
ID                                       : 2
Format                                   : AAC
Format/Info                              : Advanced Audio Codec
Format profile                           : LC
Codec ID                                 : A_AAC-2
Duration                                 : 1 h 51 min
Bit rate                                 : 126 kb/s
Channel(s)                               : 2 channels
Channel positions                        : Front: L R
Sampling rate                            : 44.1 kHz
Frame rate                               : 43.066 FPS (1024 SPF)
Compression mode                         : Lossy
Stream size                              : 100 MiB (6%)
Title                                    : www.movcr.com
Default                                  : Yes
Forced                                   : No

Text
ID                                       : 3
Format                                   : UTF-8
Codec ID                                 : S_TEXT/UTF8
Codec ID/Info                            : UTF-8 Plain Text
Bit rate                                 : 0 b/s
Count of elements                        : 1
Stream size                              : 12.0 Bytes (0%)
Default                                  : Yes
Forced                                   : No


 
 
 
 
 
 
/b]
Category:Movies > South Dub
Lang:Hindi
Total Size:1.54 GB
Info Hash:22474a986f914f20f9929456f8f6ed16bf410c4a
Added By:Kingmaker
Date Added:10-03-2018 17:21:03
Downloads:590

Download Torrent

Ratings:Not Yet Rated (Log in to rate it)


Tracker:
udp://tracker.openbittorrent.com:80/announce

This Torrent also has backup trackers
URLSeedersLeechersCompleted
http://share.camoe.cn:8080/announce000
http://t.nyaatracker.com:80/announce000
http://asnet.pw:2710/announce000
http://tracker.tfile.co:80/announce000
http://pt.lax.mx:80/announce000
https://tracker.bt-hash.com:443/announce000
http://grifon.info:80/announce000
http://retracker.spark-rostov.ru:80/announce000
http://tr.kxmp.cf:80/announce000
http://tracker.city9x.com:2710/announce250
http://tracker.tfile.me:80/announce000
http://retracker.telecom.by:80/announce000
http://tracker.electro-torrent.pl:80/announce130
https://open.kickasstracker.com:443/announce280
http://retracker.mgts.by:80/announce260
http://retracker.bashtel.ru:80/announce000
http://tracker.devil-torrents.pl:80/announce000
http://torrentsmd.eu:8080/announce000
http://ns349743.ip-91-121-106.eu:80/announce000
http://torrentsmd.me:8080/announce000
http://agusiq-torrents.pl:6969/announce000
http://fxtt.ru:80/announce000


File List: 


Comments

No comments still posted

Powered by 10 Hamsters v2-svn -|- Page Generated In 1.494322 secs.
-|- RSS Feed -|- Feed Info
Theme By: Nikkbu