Login
Username:
Password:
[Signup]
[Recover Account]


Browse Torrents

Poll


You must be logged in to view polls



Latest Torrents
The.Shanghai.Job.2...
- [Size: 612.54 MB]

Dragon.Mountain.20...
- [Size: 532.61 MB]

Life.Of.The.Party....
- [Size: 622.87 MB]

The.Atoning.2017.B...
- [Size: 396.75 MB]

Tully.2018.BDRip.x...
- [Size: 450.57 MB]


Torrent Details For "Fightwala (Sundarapandian) (2012) Hindi Dubbed 720p HDRip x264 AAC - 1GB - MovCr"

Fightwala (Sundarapandian) (2012) Hindi Dubbed 720p HDRip x264 AAC - 1GB - MovCr

Download this torrent | Magnet Download
Health:
Seeds: 49
Leechers: 176
Completed:
Last Checked: 12-03-2018 19:22:29
External Torrent
Update Stats


Watch-Free-HD     Download

Poster


iMDB
Imdb Picture Title: Sundara
Year: 2012
Runtime: 148 minutes
Votes: 440
Rating: 6.9/10
Language: Tamil
Country: India
All Genres: Comedy, Drama, Family
Plot Outline: The film seeks to stress that only situations compel people to change and do things that are not in their nature.
Director: S. Prabhakaran

Produced By: M. Sasikumar,
Cast:
M. Sasikumar as Sundarapandian
Lakshmi Menon as Archana
Vijay Sethupathi as Jegan
Appukutty as Buvaneswaran
Soori as Murugesan
Prabhakar as Arivazhagan
Aadukalam Naren as Raghupathi Thevar
Sounthara Raja as Paranjothi
Sujatha as Archana's Aunty
Thennavan as Pandi Thevar


Watch-Free-HD     Download

Details
Name:Fightwala (Sundarapandian) (2012) Hindi Dubbed 720p HDRip x264 AAC - 1GB - MovCr
Description:
Fightwala (Sundarapandian) (2012) Hindi Dubbed 720p HDRip x264 AAC - 1GB - MovCr

 http://www.imdb.com/title/tt2391732/

 
General
Complete name                            : www.movcr.com - Fightwala (Sundarapandian) (2012) Hindi Dubbed 720p HDRip x264 AAC - 1GB - MovCr.mkv
Format                                   : Matroska
Format version                           : Version 4 / Version 2
File size                                : 1.07 GiB
Duration                                 : 2 h 6 min
Overall bit rate                         : 1 210 kb/s
Movie name                               : www.movcr.com
Encoded date                             : UTC 2018-03-13 07:46:57
Writing application                      : mkvmerge v20.0.0 ('I Am The Sun') 64-bit
Writing library                          : libebml v1.3.5 + libmatroska v1.4.8

Video
ID                                       : 1
Format                                   : AVC
Format/Info                              : Advanced Video Codec
Format profile                           : [email protected]
Format settings                          : CABAC / 3 Ref Frames
Format settings, CABAC                   : Yes
Format settings, RefFrames               : 3 frames
Codec ID                                 : V_MPEG4/ISO/AVC
Duration                                 : 2 h 6 min
Bit rate                                 : 1 082 kb/s
Width                                    : 1 280 pixels
Height                                   : 554 pixels
Display aspect ratio                     : 2.35:1
Frame rate mode                          : Constant
Frame rate                               : 25.000 FPS
Color space                              : YUV
Chroma subsampling                       : 4:2:0
Bit depth                                : 8 bits
Scan type                                : Progressive
Bits/(Pixel*Frame)                       : 0.061
Stream size                              : 981 MiB (89%)
Title                                    : www.movcr.com
Default                                  : Yes
Forced                                   : No
Color range                              : Limited
Color primaries                          : BT.709
Transfer characteristics                 : BT.709
Matrix coefficients                      : BT.709

Audio
ID                                       : 2
Format                                   : AAC
Format/Info                              : Advanced Audio Codec
Format profile                           : LC
Codec ID                                 : A_AAC-2
Duration                                 : 2 h 6 min
Bit rate                                 : 126 kb/s
Channel(s)                               : 2 channels
Channel positions                        : Front: L R
Sampling rate                            : 44.1 kHz
Frame rate                               : 43.066 FPS (1024 SPF)
Compression mode                         : Lossy
Stream size                              : 114 MiB (10%)
Title                                    : www.movcr.com
Language                                 : Hindi
Default                                  : Yes
Forced                                   : No


 
 
 
 
 
 
 
 
 
Category:Movies > South Dub
Lang:Hindi
Total Size:1.07 GB
Info Hash:c814db4958d6bc45c9b130c79a4b4853f4517a39
Added By:Kingmaker
Date Added:12-03-2018 17:52:03
Downloads:540

Download Torrent

Ratings:Not Yet Rated (Log in to rate it)


Tracker:
udp://tracker.openbittorrent.com:80/announce

This Torrent also has backup trackers
URLSeedersLeechersCompleted
http://share.camoe.cn:8080/announce000
http://t.nyaatracker.com:80/announce000
http://asnet.pw:2710/announce000
http://tracker.tfile.co:80/announce000
http://pt.lax.mx:80/announce000
https://tracker.bt-hash.com:443/announce000
http://grifon.info:80/announce000
http://retracker.spark-rostov.ru:80/announce000
http://tr.kxmp.cf:80/announce000
http://tracker.city9x.com:2710/announce230
http://tracker.tfile.me:80/announce000
http://retracker.telecom.by:80/announce000
http://tracker.electro-torrent.pl:80/announce110
https://open.kickasstracker.com:443/announce110
http://retracker.mgts.by:80/announce000
http://retracker.bashtel.ru:80/announce000
http://tracker.devil-torrents.pl:80/announce000
http://torrentsmd.eu:8080/announce020
http://ns349743.ip-91-121-106.eu:80/announce000
http://torrentsmd.me:8080/announce020
http://agusiq-torrents.pl:6969/announce000
http://fxtt.ru:80/announce000


File List: 


Comments

No comments still posted

Powered by 10 Hamsters v2-svn -|- Page Generated In 2.048593 secs.
-|- RSS Feed -|- Feed Info
Theme By: Nikkbu