Login
Username:
Password:
[Signup]
[Recover Account]


Browse Torrents

Poll


You must be logged in to view polls



Latest Torrents
Jimmy.Fallon.2018....
- [Size: 574.17 MB]

MasterChef.Austral...
- [Size: 393.26 MB]

King Kong Lives 19...
- [Size: 640.37 MB]

Hotel Transylvania...
- [Size: 850.05 MB]

Rosy.2018.HDRip.Xv...
- [Size: 1.36 GB]


Torrent Details For "Thor Rangnarok 2017 1080p BDrip x264 Dual Audio [BD-Hin + Eng 5.1] Skyler"

Thor Rangnarok 2017 1080p BDrip x264 Dual Audio [BD-Hin + Eng 5.1] Skyler

Download this torrent | Magnet Download
Health:
Seeds: 83
Leechers: 76
Completed: 994 
Last Checked: 18-03-2018 07:13:19
External Torrent
Update Stats


Watch-Free-HD     Download

Poster


iMDB
Imdb Picture Title: Thor: Ragnarok
Year: 2017
Runtime: 130 minutes
Votes: 20451
Rating: 8.3/10
Language: English
Country: USA
All Genres: Action, Adventure, Comedy, Sci-Fi
Plot Outline: Imprisoned, the mighty Thor finds himself in a lethal gladiatorial contest against the Hulk, his former ally. Thor must fight for survival and race against time to prevent the all-powerful Hela from destroying his home and the Asgardian civilization.
Tagline: Thunder Will Reign.
Director: Taika Waititi
Writing By: Eric Pearson,Craig Kyle,Christopher Yost,Stan Lee,Larry Lieber,Jack Kirby,
Produced By: Victoria Alonso,Brian Chapek,Louis D'Esposito,Kevin Feige,Thomas M. Hammel,Stan Lee,Brad Winderbaum,
Music: Mark Mothersbaugh
Cast:
Chris Hemsworth as Thor
Tom Hiddleston as Loki
Cate Blanchett as Hela
Idris Elba as Heimdall
Jeff Goldblum as Grandmaster
Tessa Thompson as Valkyrie
Karl Urban as Skurge
Mark Ruffalo as Bruce Banner / Hulk
Anthony Hopkins as Odin
Benedict Cumberbatch as Doctor Strange
Trailers:
Contender Spot
Trailer 1
Comic-Con Trailer
Teaser Trailer


Watch-Free-HD     Download

Details
Name:Thor Rangnarok 2017 1080p BDrip x264 Dual Audio [BD-Hin + Eng 5.1] Skyler
Description:





[size=23]Thor Rangnarok 2017 1080p BDrip x264 Dual Audio Original BD Audio [Hin + Eng 5.1] Skyler[/size]

[size=23]
Its Original Sony Bluray Audio [ perfect synchronization By Me Skyler Shd [
Where Ever You Share Movies & Audio Give Proper Credit Skyler Shd
[/size]


Video
ID                                       : 1
Format                                   : AVC
Format/Info                              : Advanced Video Codec
Format profile                           : [email protected]
Format settings                          : CABAC / 5 Ref Frames
Format settings, CABAC                   : Yes
Format settings, RefFrames               : 5 frames
Codec ID                                 : V_MPEG4/ISO/AVC
Duration                                 : 2 h 10 min
Bit rate                                 : 2 700 kb/s
Width                                    : 1 920 pixels
Height                                   : 800 pixels
Display aspect ratio                     : 2.40:1
Frame rate mode                          : Constant
Frame rate                               : 23.976 (24000/1001) FPS
Color space                              : YUV
Chroma subsampling                       : 4:2:0
Bit depth                                : 8 bits
Scan type                                : Progressive
Bits/(Pixel*Frame)                       : 0.073
Stream size                              : 2.46 GiB (71%)
Title                                    : Thor Rangnarok 2017 1080p BDrip
Writing library                          : x264 core 152 r2851 ba24899
Language                                 : English
Default                                  : Yes
Forced                                   : No
Color range                              : Limited
Color primaries                          : Generic film
Transfer characteristics                 : BT.709
Matrix coefficients                      : BT.709                                  

Audio #1
ID                                       : 2
Format                                   : AC-3
Format/Info                              : Audio Coding 3
Codec ID                                 : A_AC3
Duration                                 : 2 h 10 min
Bit rate mode                            : Constant
Bit rate                                 : 640 kb/s
Channel(s)                               : 6 channels
Channel positions                        : Front: L C R, Side: L R, LFE
Sampling rate                            : 48.0 kHz
Frame rate                               : 31.250 FPS (1536 SPF)
Bit depth                                : 16 bits
Compression mode                         : Lossy
Stream size                              : 597 MiB (17%)
Title                                    : 5.1 ORG BD Skyler
Language                                 : Hindi
Service kind                             : Complete Main
Default                                  : Yes
Forced                                   : No

Audio #2
ID                                       : 3
Format                                   : AC-3
Format/Info                              : Audio Coding 3
Codec ID                                 : A_AC3
Duration                                 : 2 h 10 min
Bit rate mode                            : Constant
Bit rate                                 : 448 kb/s
Channel(s)                               : 6 channels
Channel positions                        : Front: L C R, Side: L R, LFE
Sampling rate                            : 48.0 kHz
Frame rate                               : 31.250 FPS (1536 SPF)
Bit depth                                : 16 bits
Compression mode                         : Lossy
Stream size                              : 418 MiB (12%)
Title                                    : 5.1 448 kbps Skyler
Language                                 : English
Service kind                             : Complete Main
Default                                  : No
Forced                                   : No






















Category:Movies > Hollywood Dub
Lang:Hindi
Total Size:3.50 GB
Info Hash:6accfe916e69b3c1574aaf4b1b59f1d0539c98ae
Added By:Skyler
Date Added:13-03-2018 18:26:16
Downloads:309

Download Torrent

Ratings:Not Yet Rated (Log in to rate it)


Tracker:
udp://inferno.demonoid.pw:3391/announce


File List: 


Comments

No comments still posted

Powered by 10 Hamsters v2-svn -|- Page Generated In 5.584582 secs.
-|- RSS Feed -|- Feed Info
Theme By: Nikkbu