Login
Username:
Password:
[Signup]
[Recover Account]


Browse Torrents

Poll


You must be logged in to view polls



Latest Torrents
The.Shanghai.Job.2...
- [Size: 612.54 MB]

Dragon.Mountain.20...
- [Size: 532.61 MB]

Life.Of.The.Party....
- [Size: 622.87 MB]

The.Atoning.2017.B...
- [Size: 396.75 MB]

Tully.2018.BDRip.x...
- [Size: 450.57 MB]


Torrent Details For "Jack Reacher (2012) 720p BluRay x264 [Dual-Audio][Hindi - English] @ Filmiwar"

Jack Reacher (2012) 720p BluRay x264 [Dual-Audio][Hindi - English] @ Filmiwar

Download this torrent | Magnet Download
Health:
Seeds: 2
Leechers: 302
Completed:
Last Checked: 15-03-2018 15:27:32
External Torrent
Update Stats


Watch-Free-HD     Download

Poster


iMDB
Imdb Picture Title: Jack Reacher
Year: 2012
Runtime: 130 minutes
Votes: 260154
Rating: 7.0/10
Language: English
Country: USA
All Genres: Action, Crime, Mystery, Thriller
Plot Outline: A homicide investigator digs deeper into a case involving a trained military sniper who shot five random victims.
Tagline: The law has limits. He does not.
Director: Christopher McQuarrie
Writing By: Lee Child,Christopher McQuarrie,
Produced By: Tom Cruise,David Ellison,Dana Goldberg,Don Granger,Ken Kamins,Cliff Lanning,Gary Levinsohn,Kevin J. Messick,Jake Myers,Paul Schwake,Paula Wagner,
Music: Joe Kraemer
Cast:
Tom Cruise as Reacher
Rosamund Pike as Helen
Richard Jenkins as Rodin
David Oyelowo as Emerson
Werner Herzog as The Zec
Jai Courtney as Charlie
Vladimir Sizov as Vlad
Joseph Sikora as Barr
Michael Raymond-James as Linsky
Alexia Fast as Sandy
Trailers:
U.S. Version #2
No. 1


Watch-Free-HD     Download

Details
Name:Jack Reacher (2012) 720p BluRay x264 [Dual-Audio][Hindi - English] @ Filmiwar
Description:


 http://filmiwar.com/






www.imdb.com/title/tt0790724/

General

Hash ID                                  : 212349284990694225939065682397543276357
Format                                   : Matroska
Format version                           : Version 4 / Version 2
File size                                : 1.19 GiB
Duration                                 : 2 h 10 min
Overall bit rate                         : 1 305 kb/s
Movie name                               : Jack Reacher (2012) 720p BluRay x264 [Dual-Audio][Hindi - English] @ Filmiwar
Cover                                    : Yes
Attachments                              : Cover.jpg

Video

ID                                       : 1
Format                                   : AVC
Format/Info                              : Advanced Video Codec
Format profile                           : [email protected]
Format settings                          : CABAC / 5 Ref Frames
Format settings, CABAC                   : Yes
Format settings, RefFrames               : 5 frames
Codec ID                                 : V_MPEG4/ISO/AVC
Duration                                 : 2 h 10 min
Bit rate                                 : 535 kb/s
Width                                    : 1 264 pixels
Height                                   : 544 pixels
Display aspect ratio                     : 2.35:1
Frame rate mode                          : Constant
Frame rate                               : 23.976 (24000/1001) FPS
Color space                              : YUV
Chroma subsampling                       : 4:2:0
Bit depth                                : 8 bits
Scan type                                : Progressive
Bits/(Pixel*Frame)                       : 0.032
Stream size                              : 499 MiB (41%)
Title                                    : Visit .-. Filmiwar.com .-.
Writing library                          : x264 core 130 r2273 b3065e6
Language                                 : English
Default                                  : Yes
Forced                                   : No

Audio #1

ID                                       : 2
Format                                   : AC-3
Format/Info                              : Audio Coding 3
Codec ID                                 : A_AC3
Duration                                 : 2 h 10 min
Bit rate mode                            : Constant
Bit rate                                 : 320 kb/s
Channel(s)                               : 6 channels
Channel positions                        : Front: L C R, Side: L R, LFE
Sampling rate                            : 48.0 kHz
Frame rate                               : 31.250 FPS (1536 SPF)
Bit depth                                : 16 bits
Compression mode                         : Lossy
Stream size                              : 298 MiB (25%)
Title                                    : Visit .-. Filmiwar.com .-.
Language                                 : Hindi
Service kind                             : Complete Main
Default                                  : No
Forced                                   : No

Audio #2

ID                                       : 3
Format                                   : AC-3
Format/Info                              : Audio Coding 3
Codec ID                                 : A_AC3
Duration                                 : 2 h 10 min
Bit rate mode                            : Constant
Bit rate                                 : 448 kb/s
Channel(s)                               : 6 channels
Channel positions                        : Front: L C R, Side: L R, LFE
Sampling rate                            : 48.0 kHz
Frame rate                               : 31.250 FPS (1536 SPF)
Bit depth                                : 16 bits
Compression mode                         : Lossy
Delay relative to video                  : 1 s 0 ms
Stream size                              : 417 MiB (34%)
Title                                    : Visit .-. Filmiwar.com .-.
Language                                 : Hindi
Service kind                             : Complete Main
Default                                  : Yes
Forced                                   : No

 http://filmiwar.com/

-:@ Screen Shots @:-














1CnbmYmViVdxgLnhqJzp2ENzsWxnx4iUyT



!!!...Keep Seeding After Download...!!!


Category:Movies > Hollywood Dub
Lang:Hindi
Total Size:1.19 GB
Info Hash:76ce5f7036a9df19dcdeb6980e105f441c3010c0
Added By:filmiwar
Date Added:14-03-2018 15:39:55
Downloads:229

Download Torrent

Ratings:Not Yet Rated (Log in to rate it)


Tracker:
udp://ipv4.tracker.harry.lu:80/announce


File List: 


Comments

No comments still posted

Powered by 10 Hamsters v2-svn -|- Page Generated In 2.844664 secs.
-|- RSS Feed -|- Feed Info
Theme By: Nikkbu