Login
Username:
Password:
[Signup]
[Recover Account]


Browse Torrents

Poll


You must be logged in to view polls



Latest Torrents
Jallikattu (Karupp...
- [Size: 1.04 GB]

The.Stolen.Princes...
- [Size: 1.44 GB]

Naked.and.Afraid.X...
- [Size: 983.87 MB]

Naked.and.Afraid.S...
- [Size: 957.73 MB]

Live.PD.S02E64.WEB...
- [Size: 1.77 GB]


Torrent Details For "Cabin 28 2017 720p BRRip x264 ESub"

Cabin 28 2017 720p BRRip x264 ESub

Download this torrent | Magnet Download
Health:
Seeds: 58
Leechers: 42
Completed: 84 
Last Checked: 14-03-2018 18:05:05
External Torrent
Update Stats


Watch-Free-HD     Download

Poster
No poster


Watch-Free-HD     Download

Details
Name:Cabin 28 2017 720p BRRip x264 ESub
Description:

 


General
Format                                   : Matroska
Format version                           : Version 4 / Version 2
File size                                : 806 MiB
Duration                                 : 1 h 18 min
Overall bit rate                         : 1 436 kb/s

Video
ID                                       : 1
Format                                   : AVC
Format/Info                              : Advanced Video Codec
Format profile                           : [email protected]
Format settings                          : CABAC / 4 Ref Frames
Format settings, CABAC                   : Yes
Format settings, RefFrames               : 4 frames
Codec ID                                 : V_MPEG4/ISO/AVC
Duration                                 : 1 h 18 min
Bit rate                                 : 1 400 kb/s
Width                                    : 1 280 pixels
Height                                   : 536 pixels
Display aspect ratio                     : 2.40:1
Frame rate mode                          : Constant
Frame rate                               : 25.000 FPS
Color space                              : YUV
Chroma subsampling                       : 4:2:0
Bit depth                                : 8 bits
Scan type                                : Progressive
Bits/(Pixel*Frame)                       : 0.082
Stream size                              : 751 MiB (93%)
Writing library                          : x264 core 148 r2708 86b7198
Default                                  : Yes
Forced                                   : No

Audio
ID                                       : 2
Format                                   : AAC
Format/Info                              : Advanced Audio Codec
Format profile                           : HE-AAC / LC
Format settings                          : Explicit
Codec ID                                 : A_AAC-2
Duration                                 : 1 h 18 min
Bit rate                                 : 96.0 kb/s
Channel(s)                               : 2 channels
Channel positions                        : Front: L R
Sampling rate                            : 48.0 kHz / 24.0 kHz
Frame rate                               : 23.438 FPS (1024 SPF)
Compression mode                         : Lossy
Stream size                              : 53.1 MiB (7%)
Default                                  : Yes
Forced                                   : No

Text
ID                                       : 3
Format                                   : UTF-8
Codec ID                                 : S_TEXT/UTF8
Codec ID/Info                            : UTF-8 Plain Text
Duration                                 : 1 h 5 min
Bit rate                                 : 46 b/s
Count of elements                        : 694
Stream size                              : 22.4 KiB (0%)
Default                                  : Yes
Forced                                   : No




           


Category:Movies > HDRips
Lang:English  English
Total Size:805.52 MB
Info Hash:7d44724b1c67150f35a3aeb8961d0e2e42938e8a
Added By:Freaky
Date Added:14-03-2018 18:04:44
Downloads:113

Download Torrent

Ratings:Not Yet Rated (Log in to rate it)


Tracker:
udp://tracker.pirateparty.gr:6969/announce

This Torrent also has backup trackers
URLSeedersLeechersCompleted
http://tracker.opentrackr.org/announce000
http://tracker.vanitycore.co:6969/announce527
http://public.popcorn-tracker.org:6969/announce427


File List: 


Comments

No comments still posted

Powered by 10 Hamsters v2-svn -|- Page Generated In 4.656257 secs.
-|- RSS Feed -|- Feed Info
Theme By: Nikkbu