Login
Username:
Password:
[Signup]
[Recover Account]


Browse Torrents

Poll


You must be logged in to view polls



Latest Torrents
Jallikattu (Karupp...
- [Size: 1.04 GB]

The.Stolen.Princes...
- [Size: 1.44 GB]

Naked.and.Afraid.X...
- [Size: 983.87 MB]

Naked.and.Afraid.S...
- [Size: 957.73 MB]

Live.PD.S02E64.WEB...
- [Size: 1.77 GB]


Torrent Details For "Kickboxer Retaliation 2018 720p BRRip x264 ESub"

Kickboxer Retaliation 2018 720p BRRip x264 ESub

Download this torrent | Magnet Download
Health:
Seeds: 105
Leechers: 152
Completed: 172 
Last Checked: 14-03-2018 18:20:29
External Torrent
Update Stats


Watch-Free-HD     Download

Poster
No poster


Watch-Free-HD     Download

Details
Name:Kickboxer Retaliation 2018 720p BRRip x264 ESub
Description:

 


General
Format                                   : Matroska
Format version                           : Version 4 / Version 2
File size                                : 1 020 MiB
Duration                                 : 1 h 50 min
Overall bit rate                         : 1 291 kb/s

Video
ID                                       : 1
Format                                   : AVC
Format/Info                              : Advanced Video Codec
Format profile                           : [email protected]
Format settings                          : CABAC / 4 Ref Frames
Format settings, CABAC                   : Yes
Format settings, RefFrames               : 4 frames
Codec ID                                 : V_MPEG4/ISO/AVC
Duration                                 : 1 h 50 min
Bit rate                                 : 1 200 kb/s
Width                                    : 1 280 pixels
Height                                   : 536 pixels
Display aspect ratio                     : 2.40:1
Frame rate mode                          : Constant
Frame rate                               : 23.976 (24000/1001) FPS
Color space                              : YUV
Chroma subsampling                       : 4:2:0
Bit depth                                : 8 bits
Scan type                                : Progressive
Bits/(Pixel*Frame)                       : 0.073
Stream size                              : 943 MiB (92%)
Writing library                          : x264 core 148 r2708 86b7198
Default                                  : Yes
Forced                                   : No

Audio
ID                                       : 2
Format                                   : AAC
Format/Info                              : Advanced Audio Codec
Format profile                           : HE-AAC / LC
Format settings                          : Explicit
Codec ID                                 : A_AAC-2
Duration                                 : 1 h 50 min
Bit rate                                 : 96.0 kb/s
Channel(s)                               : 2 channels
Channel positions                        : Front: L R
Sampling rate                            : 48.0 kHz / 24.0 kHz
Frame rate                               : 23.438 FPS (1024 SPF)
Compression mode                         : Lossy
Stream size                              : 74.8 MiB (7%)
Language                                 : English
Default                                  : Yes
Forced                                   : No

Text
ID                                       : 3
Format                                   : VobSub
Muxing mode                              : zlib
Codec ID                                 : S_VOBSUB
Codec ID/Info                            : Picture based subtitle format used on DVDs
Duration                                 : 1 h 41 min
Bit rate                                 : 1 561 b/s
Count of elements                        : 729
Stream size                              : 1.13 MiB (0%)
Language                                 : English
Default                                  : Yes
Forced                                   : No




           




Category:Movies > 720P Bluray
Lang:English  English
Total Size:1,020.00 MB
Info Hash:2c63423630649bf05056a225d83ed031b7bcf894
Added By:Freaky
Date Added:14-03-2018 18:20:04
Downloads:120

Download Torrent

Ratings:Not Yet Rated (Log in to rate it)


Tracker:
udp://tracker.pirateparty.gr:6969/announce

This Torrent also has backup trackers
URLSeedersLeechersCompleted
http://tracker.opentrackr.org/announce000
http://tracker.vanitycore.co:6969/announce91212
http://public.popcorn-tracker.org:6969/announce9117


File List: 


Comments

No comments still posted

Powered by 10 Hamsters v2-svn -|- Page Generated In 4.445585 secs.
-|- RSS Feed -|- Feed Info
Theme By: Nikkbu