Login
Username:
Password:
[Signup]
[Recover Account]


Browse Torrents

Poll


You must be logged in to view polls



Latest Torrents
Jallikattu (Karupp...
- [Size: 1.04 GB]

The.Stolen.Princes...
- [Size: 1.44 GB]

Naked.and.Afraid.X...
- [Size: 983.87 MB]

Naked.and.Afraid.S...
- [Size: 957.73 MB]

Live.PD.S02E64.WEB...
- [Size: 1.77 GB]


Torrent Details For "Unstoppable (2010) BluRay 720p x264 Dual Audio [Hindi DD5.1 - English DD5.1] - Esub ~ Ranvijay"

Unstoppable (2010) BluRay 720p x264 Dual Audio [Hindi DD5.1 - English DD5.1] - Esub ~ Ranvijay

Download this torrent | Magnet Download
Health:
Seeds: 23
Leechers: 13
Completed:
Last Checked: 14-03-2018 18:32:15
External Torrent
Update Stats


Watch-Free-HD     Download

Poster


iMDB
Imdb Picture Title: Unstoppable
Year: 2010
Runtime: 98 minutes
Votes: 163950
Rating: 6.8/10
Language: English
Country: USA
All Genres: Action, Thriller
Plot Outline: With an unmanned, half-mile-long freight train barreling toward a city, a veteran engineer and a young conductor race against the clock to prevent a catastrophe.
Tagline: 1 million tons of steel. 100,000 people at risk. 100 minutes to impact.
Director: Tony Scott
Writing By: Mark Bomback,
Produced By: Skip Chaisson,Chris Ciaffa,Noam Dromi,Jeff Kwatinetz,Eric McLeod,Tom Moran,Janice Polley,Mimi Rogers,Diane L. Sabatini,Tony Scott,Adam Somner,Lee Trink,Julie Yorn,Rick Yorn,Alex Young,
Music: Harry Gregson-Williams
Cast:
Denzel Washington as Frank
Chris Pine as Will
Rosario Dawson as Connie
Ethan Suplee as Dewey
Kevin Dunn as Galvin
Kevin Corrigan as Inspector Werner
Kevin Chapman as Bunny
Lew Temple as Ned
T.J. Miller as Gilleece
Jessy Schram as Darcy
Trailers:
Unstoppable: Trailer #1
Unstoppable: Trailer #1


Watch-Free-HD     Download

Details
Name:Unstoppable (2010) BluRay 720p x264 Dual Audio [Hindi DD5.1 - English DD5.1] - Esub ~ Ranvijay
Description:

 
 



Unstoppable (2010) BluRay 720p x264 Dual Audio [Hindi DD5.1 - English DD5.1] - Esub ~ Ranvijay

Format                                   : Matroska
Format version                           : Version 4 / Version 2
File size                                : 2.47 GiB
Duration                                 : 1 h 38 min
Overall bit rate                         : 3 583 kb/s
Movie name                               : Unstoppable (2010) BluRay 720p x264 Dual Audio [Hindi DD5.1 - English DD5.1] - Esub ~ Ranvijay

Video
Duration                                 : 1 h 38 min
Bit rate                                 : 2 750 kb/s
Width                                    : 1 280 pixels
Height                                   : 536 pixels
Display aspect ratio                     : 2.40:1
Frame rate mode                          : Constant
Frame rate                               : 23.976 (24000/1001) FPS
Color space                              : YUV
Chroma subsampling                       : 4:2:0
Bit depth                                : 8 bits
Scan type                                : Progressive
Bits/(Pixel*Frame)                       : 0.167
Stream size                              : 1.89 GiB (77%)
Title                                    : ~Ranvijay~
Language                                 : English
Default                                  : Yes
Forced                                   : No

Audio #1
ID                                       : 3
Format                                   : AC-3
Format/Info                              : Audio Coding 3
Codec ID                                 : A_AC3
Duration                                 : 1 h 38 min
Bit rate mode                            : Constant
Bit rate                                 : 448 kb/s
Channel(s)                               : 6 channels
Channel positions                        : Front: L C R, Side: L R, LFE
Sampling rate                            : 48.0 kHz
Frame rate                               : 31.250 FPS (1536 SPF)
Bit depth                                : 16 bits
Compression mode                         : Lossy
Stream size                              : 316 MiB (13%)
Title                                    : ~Ranvijay~
Language                                 : Hindi
Service kind                             : Complete Main
Default                                  : Yes
Forced                                   : No

Audio #2
ID                                       : 4
Format                                   : AC-3
Format/Info                              : Audio Coding 3
Codec ID                                 : A_AC3
Duration                                 : 1 h 38 min
Bit rate mode                            : Constant
Bit rate                                 : 384 kb/s
Channel(s)                               : 6 channels
Channel positions                        : Front: L C R, Side: L R, LFE
Sampling rate                            : 48.0 kHz
Frame rate                               : 31.250 FPS (1536 SPF)
Bit depth                                : 16 bits
Compression mode                         : Lossy
Delay relative to video                  : 27 ms
Stream size                              : 271 MiB (11%)
Title                                    : ~Ranvijay~
Language                                 : English
Service kind                             : Complete Main
Default                                  : No
Forced                                   : No

Text
ID                                       : 2
Format                                   : UTF-8
Codec ID                                 : S_TEXT/UTF8
Codec ID/Info                            : UTF-8 Plain Text
Duration                                 : 1 h 32 min
Bit rate                                 : 74 b/s
Count of elements                        : 1401
Stream size                              : 50.1 KiB (0%)
Title                                    : ~Ranvijay~
Language                                 : English
Default                                  : Yes
Forced                                   : No


 
 
 
 
 
 
 
 
 
 
 
Category:Movies > Hollywood Dub
Lang:Hindi
Total Size:2.47 GB
Info Hash:ed4051724b7cf733e0b9d0dd8d5050ec87e3d414
Added By:ranvijay1234
Date Added:14-03-2018 18:29:06
Downloads:373

Download Torrent

Ratings:Not Yet Rated (Log in to rate it)


Tracker:
http://bigfoot1942.sektori.org:6969/announce

This Torrent also has backup trackers
URLSeedersLeechersCompleted
http://bigfoot1942.sektori.org:6969/announce000
http://tracker2.wasabii.com.tw:6969/announce000
http://announce.torrentsmd.com:6969/announce000
http://glotorrents.pw:80/announce000
https://jiotorrents.net/announce.php?pk=55d8c994ec11650b3b27ff3073f32fc836856f73000


File List: 


Comments

No comments still posted

Powered by 10 Hamsters v2-svn -|- Page Generated In 9.126440 secs.
-|- RSS Feed -|- Feed Info
Theme By: Nikkbu