Login
Username:
Password:
[Signup]
[Recover Account]


Browse Torrents

Poll


You must be logged in to view polls



Latest Torrents
Skyscraper 2018 x2...
- [Size: 423.27 MB]

[18+] Karenjit Kau...
- [Size: 2.37 GB]

Robot.Chicken.S09E...
- [Size: 89.67 MB]

The Honey Killer 2...
- [Size: 1.35 GB]

Single AF 2018 108...
- [Size: 923.20 MB]


Torrent Details For "Robot ( 2010 ) Hindi BluRay 720p x264 AAC { TaRa }"

Robot ( 2010 ) Hindi BluRay 720p x264 AAC { TaRa }

Download this torrent | Magnet Download
Health:
Seeds: 0
Leechers: 13
Completed: 29 
Last Checked: 17-07-2017 11:34:14
External Torrent
Update Stats


Watch-Free-HD     Download

Poster


Watch-Free-HD     Download

Details
Name:Robot ( 2010 ) Hindi BluRay 720p x264 AAC { TaRa }
Description:

Quote:

Robot ( 2010 ) Hindi BluRay 720p x264 AAC { TaRa }.mkv


===================================================================
General
Complete name               : Robot ( 2010 ) Hindi BluRay 720p x264 AAC { TaRa }.mkv
Format                      : Matroska
Format version              : Version 4 / Version 2
File size                   : 1.78 GiB
Duration                    : 2 h 56 min
Overall bit rate mode       : Variable
Overall bit rate            : 1 437 kb/s
===================================================================
Video
ID                          : 1
Format                      : AVC
Format/Info                 : Advanced Video Codec
Format profile              : [email protected]
Format settings, CABAC      : Yes
Format settings, ReFrames   : 3 frames
Codec ID                    : V_MPEG4/ISO/AVC
Duration                    : 2 h 56 min
Bit rate mode               : Variable
Bit rate                    : 1 306 kb/s
Maximum bit rate            : 40.0 Mb/s
Width                       : 1 280 pixels
Height                      : 544 pixels
Display aspect ratio        : 2.35:1
Frame rate mode             : Constant
Frame rate                  : 30.000 FPS
Color space                 : YUV
Chroma subsampling          : 4:2:0
Bit depth                   : 8 bits
Scan type                   : Progressive
Bits/(Pixel*Frame)          : 0.063
Stream size                 : 1.61 GiB (91%)
Title                       : .....::::: TaRa :::::.....
Language                    : Hindi
Default                     : Yes
Forced                      : No
===================================================================
Audio
ID                          : 2
Format                      : AAC
Format/Info                 : Advanced Audio Codec
Format profile              : HE-AAC / LC
Codec ID                    : A_AAC
Duration                    : 2 h 56 min
Bit rate                    : 129 kb/s
Channel(s)                  : 2 channels
Channel positions           : Front: L R
Sampling rate               : 48.0 kHz / 24.0 kHz
Frame rate                  : 23.438 FPS (1024 spf)
Compression mode            : Lossy
Delay relative to video     : 31 ms
Stream size                 : 163 MiB (9%)
Title                       : .....::::: TaRa :::::.....
Language                    : Hindi
Default                     : Yes
Forced                      : No
===================================================================
 
































Category:Movies > Bollywood
Lang:Hindi
Total Size:1.79 GB
Info Hash:c7702e727b3a840f540874e2e83113ee8e32991b
Added By:SkTaRa
Date Added:06-04-2017 12:16:11
Downloads:238

Download Torrent

Ratings:Not Yet Rated (Log in to rate it)


Tracker:
udp://tracker.openbittorrent.com:80/announce

This Torrent also has backup trackers
URLSeedersLeechersCompleted
http://www.skyts.net:6969/announce000
http://www.opentrackr.org/announce000
http://mgtracker.org:2710/announce000
http://5.79.83.193:2710/announce000
http://109.121.134.121:1337/announce000


File List: 


Comments

No comments still posted

Powered by 10 Hamsters v2-svn -|- Page Generated In 6.621660 secs.
-|- RSS Feed -|- Feed Info
Theme By: Nikkbu