Login
Username:
Password:
[Signup]
[Recover Account]


Browse Torrents

Poll


You must be logged in to view polls



Latest Torrents
Skyscraper 2018 x2...
- [Size: 423.27 MB]

[18+] Karenjit Kau...
- [Size: 2.37 GB]

Robot.Chicken.S09E...
- [Size: 89.67 MB]

The Honey Killer 2...
- [Size: 1.35 GB]

Single AF 2018 108...
- [Size: 923.20 MB]


Torrent Details For "Mumbai Mirror (2013) Hindi 720p WEB-DL x264 AAC ESub { TaRa }.mkv"

Mumbai Mirror (2013) Hindi 720p WEB-DL x264 AAC ESub { TaRa }.mkv

Download this torrent | Magnet Download
Health:
Seeds: 0
Leechers: 17
Completed: 1,693 
Last Checked: 15-07-2017 03:36:58
External Torrent
Update Stats


Watch-Free-HD     Download

Poster


iMDB
Imdb Picture Title: Mumbai Mirror
Year: 2013
Runtime: 136 minutes
Votes: 95
Rating: 5.5/10
Language: English, Hindi
Country: India
All Genres: Action, Crime, Thriller
Plot Outline: A cop tries to expose a drug racket run by a goon who considers himself a king. But occasionally strange turns change the game and the lives of the players involved in it.
Tagline: Section Garam
Director: Ankush Bhatt
Writing By: Ghalib Asadbhopali,
Produced By: Raina Sachiin Joshi,Sachiin Joshi,Satish Salvi,M.R. Shahjahan,
Music: Anand Raj Anand John Stewart Eduri Amjad Nadeem
Plot:

Mumbai Mirror revolves around Abhijeet Patil, a hardcore action packed cop, who can neither tolerate violence against women nor crime in his area. He comes across a drug racket led by Shetty, who runs several bars in the city. One of the dancers, Rani, knows Abhijeet well and seduces him. She keeps using him under Shetty's directions without realizing that Abhijeet is not the usual cop they were thinking him to be. But soon, a lot of players get involved in this game: a game that takes various twists and turns, with most of them against Abhijeet. But he's sharp enough to fight it out, all alone. With the help of Jia, a reporter from Mumbai Mirror and his colleagues, Abhijeet sets out on a rampage that takes various paths with various turns leading to the final showdown : which can be won by nothing but by checkmating the opponent.

- Written by Prashast Singh

A cop tries to expose a drug racket run by a goon who considers himself a king. But occasionally strange turns change the game and the lives of the players involved in it.

- Written by Prashast Singh
Cast:
Sachiin Joshi as Abhijeet Patil
Prakash Raj as Shetty
Vimala Raman as Jia
Sudesh Berry as
Raja Bherwani as Nikhil
Rajendra Chawla as
Gihani Khan as Rani
Mahesh Manjrekar as ACP Gaitonde
Prashant Narayanan as Manish
Aditya Pancholi as Durani Shetty


Watch-Free-HD     Download

Details
Name:Mumbai Mirror (2013) Hindi 720p WEB-DL x264 AAC ESub { TaRa }.mkv
Description:

Mumbai Mirror (2013) Hindi 720p WEB-DL x264 AAC ESub { TaRa }.mkv




===================================================================
General
Complete name               : Mumbai Mirror (2013) Hindi 720p WEB-DL x264 AAC ESub { TaRa }.mkv
Format                      : Matroska
Format version              : Version 4 / Version 2
File size                   : 1.02 GiB
Duration                    : 2h 11mn
Overall bit rate mode       : Variable
Overall bit rate            : 1 116 Kbps
===================================================================
Video
ID                          : 1
Format                      : AVC
Format/Info                 : Advanced Video Codec
Format profile              : [email protected]
Format settings, CABAC      : Yes
Format settings, ReFrames   : 3 frames
Codec ID                    : V_MPEG4/ISO/AVC
Duration                    : 2h 11mn
Bit rate mode               : Variable
Bit rate                    : 988 Kbps
Maximum bit rate            : 1 000 Kbps
Width                       : 1 280 pixels
Height                      : 544 pixels
Display aspect ratio        : 2.35:1
Frame rate mode             : Constant
Frame rate                  : 23.976 (24000/1001) fps
Color space                 : YUV
Chroma subsampling          : 4:2:0
Bit depth                   : 8 bits
Scan type                   : Progressive
Bits/(Pixel*Frame)          : 0.059
Stream size                 : 929 MiB (89%)
Title                       : .....::::: TaRa :::::.....
Language                    : Hindi
Default                     : Yes
Forced                      : No
===================================================================
Audio
ID                          : 2
Format                      : AAC
Format/Info                 : Advanced Audio Codec
Format profile              : LC
Codec ID                    : A_AAC
Duration                    : 2h 11mn
Bit rate                    : 126 Kbps
Channel(s)                  : 2 channels
Channel positions           : Front: L R
Sampling rate               : 44.1 KHz
Frame rate                  : 43.066 fps (1024 spf)
Compression mode            : Lossy
Stream size                 : 118 MiB (11%)
Title                       : .....::::: TaRa :::::.....
Language                    : Hindi
Default                     : Yes
Forced                      : No
===================================================================







































 

Category:Movies > Bollywood
Lang:Hindi
Total Size:1.02 GB
Info Hash:be991752e8bd9ea0eafd212d31db94624c08788e
Added By:SkTaRa
Date Added:06-06-2017 04:12:02
Downloads:800

Download Torrent

Ratings:Not Yet Rated (Log in to rate it)

  


Tracker:
UDP://TRACKER.LEECHERS-PARADISE.ORG:6969/ANNOUNCE

This Torrent also has backup trackers
URLSeedersLeechersCompleted
http://tracker.dler.org:6969/announce000
http://ipv4.tracker.harry.lu:80/announce010


File List: 


Comments

No comments still posted

Powered by 10 Hamsters v2-svn -|- Page Generated In 6.819229 secs.
-|- RSS Feed -|- Feed Info
Theme By: Nikkbu