Login
Username:
Password:
[Signup]
[Recover Account]


Browse Torrents

Poll


You must be logged in to view polls



Latest Torrents
Occult.Angel.2018....
- [Size: 1.37 GB]

The.Real.Housewive...
- [Size: 597.76 MB]

Return.of.the.Scar...
- [Size: 1.27 GB]

Watch.What.Happens...
- [Size: 303.73 MB]

The.Devils.Well.20...
- [Size: 1.29 GB]


Torrent Details For "The Return Of Rebel 2 (Billa) (2017) Hindi Dubbed 720p HDRip x264 AAC.-.link2download"

The Return Of Rebel 2 (Billa) (2017) Hindi Dubbed 720p HDRip x264 AAC.-.link2download

Download this torrent | Magnet Download
Health:
Seeds: 0
Leechers: 5
Completed:
Last Checked: 10-07-2018 15:36:19
External Torrent
Update Stats


Watch-Free-HD     Download

Poster


iMDB
Imdb Picture Title: Billa
Year: 2009
Runtime: 149 minutes
Votes: 933
Rating: 6.1/10
Language: Telugu, English
Country: India
All Genres: Action, Romance, Thriller
Plot Outline: A police inspector sends a gangster-lookalike to uncover the gang's secrets.
Director: Meher Ramesh
Writing By: Javed Akhtar,Salim Khan,Meher Ramesh,Prasad Thota,
Produced By: Dantuluri Narendra,Prabodh,
Music: Mani Sharma
Plot:

Billa, a ruthless international crime lord wanted in at least eleven countries, operates from Kuala Lumpur. The only person he answers to is his unseen boss: "Devil." ACP Krishna Murthy is one of several officers working with Interpol to catch Billa. But when one of his informants is killed, Murthy begins to suspect a mole within the police. Eventually, Billa is killed, and Murthy is the only witness. When he learns of Ranga, a pickpocket and Billa-lookalike; Murthy sets up a secret operation. Ranga takes Billa's place to learn the gang's secrets. Chased by the law, suspected by the gang, and hunted by a vengeful femme-fatale; Ranga finds himself in extreme danger from all sides.

- Written by L. Hamre

A police inspector sends a gangster-lookalike to uncover the gang's secrets.

- Written by L. Hamre
Cast:
Prabhas as Billa / Ranga
Anushka Shetty as Maya
Hansika Motwani as Priya
Namitha as Lisa
Rahman as Interpol Agent Dharmendra
Kelly Dorge as Rashid
Ali as
Subbaraju as Vikram
Supreet as
Aditya as


Watch-Free-HD     Download

Details
Name:The Return Of Rebel 2 (Billa) (2017) Hindi Dubbed 720p HDRip x264 AAC.-.link2download
Description:
Format                                   : Matroska
Format version                           : Version 4 / Version 2
File size                                : 1.19 GiB
Duration                                 : 2 h 6 min
Overall bit rate                         : 1 343 kb/s
Encoded date                             : UTC 2017-06-10 14:18:14
Writing application                      : mkvmerge v9.9.0 ('Pick Up') 64bit
Writing library                          : libebml v1.3.4 + libmatroska v1.4.5

Video
ID                                       : 1
Format                                   : AVC
Format/Info                              : Advanced Video Codec
Format profile                           : [email protected]
Format settings, CABAC                   : Yes
Format settings, ReFrames                : 4 frames
Codec ID                                 : V_MPEG4/ISO/AVC
Duration                                 : 2 h 6 min
Bit rate                                 : 1 213 kb/s
Width                                    : 1 280 pixels
Height                                   : 528 pixels
Display aspect ratio                     : 2.40:1
Frame rate mode                          : Constant
Frame rate                               : 23.976 (24000/1001) FPS
Color space                              : YUV
Chroma subsampling                       : 4:2:0
Bit depth                                : 8 bits
Scan type                                : Progressive
Bits/(Pixel*Frame)                       : 0.075
Stream size                              : 1.07 GiB (90%)
Writing library                          : x264 core 130 r2273 b3065e6
Language                                 : English
Default                                  : Yes
Forced                                   : No
Color range                              : Limited
Color primaries                          : BT.709
Transfer characteristics                 : BT.709
Matrix coefficients                      : BT.709

Audio
ID                                       : 2
Format                                   : AAC
Format/Info                              : Advanced Audio Codec
Format profile                           : LC
Codec ID                                 : A_AAC
Duration                                 : 2 h 6 min
Bit rate                                 : 128 kb/s
Channel(s)                               : 2 channels
Channel positions                        : Front: L R
Sampling rate                            : 44.1 kHz
Frame rate                               : 43.066 FPS (1024 spf)
Compression mode                         : Lossy
Stream size                              : 116 MiB (10%)
Default                                  : Yes
Forced                                   : No





 
 
 
 
 
 
 
 
 
 
 
 





Category:Movies > South Dub
Lang:Hindi
Total Size:1.19 GB
Info Hash:2b945f28ed69b2ec3301eafb2eaaf38b21359edd
Added By:link2download
Date Added:10-06-2017 21:29:59
Downloads:860

Download Torrent

Ratings:Not Yet Rated (Log in to rate it)


Tracker:
udp://tracker.openbittorrent.com:80/announce


File List: 


Comments

No comments still posted

Powered by 10 Hamsters v2-svn -|- Page Generated In 3.674024 secs.
-|- RSS Feed -|- Feed Info
Theme By: Nikkbu