Login
Username:
Password:
[Signup]
[Recover Account]


Browse Torrents

Poll


You must be logged in to view polls



Latest Torrents
Deep.State.S01E03....
- [Size: 251.32 MB]

Sonu Ke Titu Ki Sw...
- [Size: 2.07 GB]

Sonu Ke Titu Ki Sw...
- [Size: 14.24 GB]

The.Revenge.of.Rob...
- [Size: 473.89 MB]

Terrifier.2017.LiM...
- [Size: 826.62 MB]


Torrent Details For "X-Men Universe (2000-2016) Complete Collection 720p BDRip x264 ESubs-[Dual Audio]-[Hindi+Englis..."

X-Men Universe (2000-2016) Complete Collection 720p BDRip x264 ESubs-[Dual Audio]-[Hindi+Englis...

Download this torrent | Magnet Download
Health:
Seeds: 186
Leechers: 334
Completed: 812 
Last Checked: 16-04-2018 15:37:07
External Torrent
Update Stats


Watch-Free-HD     Download

Poster


iMDB
Imdb Picture Title: X-Men
Year: 2000
Runtime: 104 minutes
Votes: 505899
Rating: 7.4/10
Language: English
Country: USA
All Genres: Action, Adventure, Sci-Fi
Plot Outline: Two mutants come to a private academy for their kind whose resident superhero team must oppose a terrorist organization with similar powers.
Tagline: The time is coming when all that we are afraid of will be all that can save us.
Director: Bryan Singer
Writing By: Tom DeSanto,Bryan Singer,David Hayter,
Produced By: Avi Arad,Tom DeSanto,Richard Donner,Matthew Edelman,Kevin Feige,Stan Lee,Scott Nimerfro,Lauren Shuler Donner,Joel Simon,Bill Todman Jr.,Ralph Winter,
Music: Michael Kamen
Cast:
Hugh Jackman as Logan / Wolverine
Patrick Stewart as Professor Charles Xavier
Ian McKellen as Eric Lensherr / Magneto
Famke Janssen as Jean Grey
James Marsden as Scott Summers / Cyclops
Halle Berry as Ororo Munroe / Storm
Anna Paquin as Rogue
Tyler Mane as Sabretooth
Ray Park as Toad
Rebecca Romijn as Mystique
Trailers:
U.S. Version
X-Men


Watch-Free-HD     Download

Details
Name:X-Men Universe (2000-2016) Complete Collection 720p BDRip x264 ESubs-[Dual Audio]-[Hindi+Englis...
Description:
Visit  www.movcr.com

X-Men Universe (2000-2016) Complete Collection 720p BDRip x264 ESubs-[Dual Audio]-[Hindi+English]- MovCR

 https://www.themoviedb.org/collection/748?language=en

 

General
Complete name                            : [MovCr.com] X-Men Universe (2000-2016) Complete Collection 720p BDRip x264 ESubs-[Dual Audio]-[Hindi+English]- MovCR\9. X-Men Apocalypse (2016) 720p Dual Audio BluRay - www.Movcr.com.mkv
Format                                   : Matroska
Format version                           : Version 4 / Version 2
File size                                : 1.44 GiB
Duration                                 : 2 h 23 min
Overall bit rate                         : 1 431 kb/s
Movie name                               : www.Movcr.com
Encoded date                             : UTC 2018-04-12 14:59:00
Writing application                      : mkvmerge v9.5.0 ('Quiet Fire') 64bit
Writing library                          : libebml v1.3.4 + libmatroska v1.4.5

Video
ID                                       : 1
Format                                   : AVC
Format/Info                              : Advanced Video Codec
Format profile                           : [email protected]
Format settings                          : CABAC / 2 Ref Frames
Format settings, CABAC                   : Yes
Format settings, RefFrames               : 2 frames
Codec ID                                 : V_MPEG4/ISO/AVC
Duration                                 : 2 h 23 min
Bit rate                                 : 1 000 kb/s
Width                                    : 1 280 pixels
Height                                   : 720 pixels
Display aspect ratio                     : 2.40:1
Frame rate mode                          : Constant
Frame rate                               : 23.976 (24000/1001) FPS
Color space                              : YUV
Chroma subsampling                       : 4:2:0
Bit depth                                : 8 bits
Scan type                                : Progressive
Bits/(Pixel*Frame)                       : 0.045
Stream size                              : 1 007 MiB (68%)
Title                                    : www.Movcr.com
Writing library                          : x264 core 148 r2721
Encoding settings                        : cabac=1 / ref=2 / deblock=1:0:0 / analyse=0x1:0x131 / me=hex / subme=7 / psy=1 / psy_rd=1.00:0.00 / mixed_ref=0 / me_range=16 / chroma_me=1 / trellis=1 / 8x8dct=0 / cqm=0 / deadzone=21,11 / fast_pskip=1 / chroma_qp_offset=-2 / threads=3 / lookahead_threads=1 / sliced_threads=0 / nr=0 / decimate=1 / interlaced=0 / bluray_compat=0 / constrained_intra=0 / bframes=3 / b_pyramid=0 / b_adapt=1 / b_bias=0 / direct=0 / weightb=1 / open_gop=0 / weightp=2 / keyint=239 / keyint_min=23 / scenecut=40 / intra_refresh=0 / rc_lookahead=40 / rc=abr / mbtree=1 / bitrate=1000 / ratetol=1.0 / qcomp=0.60 / qpmin=10 / qpmax=69 / qpstep=4 / vbv_maxrate=2000 / vbv_bufsize=24000 / nal_hrd=none / filler=0 / ip_ratio=1.40 / aq=3:1.00
Language                                 : English
Default                                  : Yes
Forced                                   : No

Audio #1
ID                                       : 2
Format                                   : AAC
Format/Info                              : Advanced Audio Codec
Format profile                           : Main
Codec ID                                 : A_AAC-1
Duration                                 : 2 h 23 min
Bit rate                                 : 225 kb/s
Channel(s)                               : 6 channels
Channel positions                        : Front: L C R, Side: L R, LFE
Sampling rate                            : 44.1 kHz
Frame rate                               : 43.066 FPS (1024 SPF)
Compression mode                         : Lossy
Stream size                              : 231 MiB (16%)
Title                                    : www.Movcr.com
Language                                 : Hindi
Default                                  : Yes
Forced                                   : No

Audio #2
ID                                       : 3
Format                                   : AAC
Format/Info                              : Advanced Audio Codec
Format profile                           : Main
Codec ID                                 : A_AAC-1
Duration                                 : 2 h 23 min
Bit rate                                 : 225 kb/s
Channel(s)                               : 6 channels
Channel positions                        : Front: L C R, Side: L R, LFE
Sampling rate                            : 48.0 kHz
Frame rate                               : 46.875 FPS (1024 SPF)
Compression mode                         : Lossy
Delay relative to video                  : 2 ms
Stream size                              : 231 MiB (16%)
Title                                    : www.Movcr.com
Language                                 : English
Default                                  : No
Forced                                   : No

Text
ID                                       : 4
Format                                   : UTF-8
Codec ID                                 : S_TEXT/UTF8
Codec ID/Info                            : UTF-8 Plain Text
Duration                                 : 13 s 0 ms
Bit rate                                 : 31 b/s
Count of elements                        : 2
Stream size                              : 51.0 Bytes (0%)
Title                                    : www.Movcr.com
Default                                  : Yes
Forced                                   : Yes



 
 
 
 
 
 
 
 
 
 
 
Category:Movies > Hollywood Dub
Lang:Hindi
Total Size:8.57 GB
Info Hash:4324aebd68d711ec018ae5a19bae1b4251bac731
Added By:Kingmaker
Date Added:13-04-2018 03:25:29
Downloads:527

Download Torrent

Ratings:Not Yet Rated (Log in to rate it)


Tracker:
udp://tracker.openbittorrent.com:80/announce

This Torrent also has backup trackers
URLSeedersLeechersCompleted
http://tracker2.itzmx.com:6961/announce040
http://tracker.vanitycore.co:6969/announce111324
http://tracker.torrentyorg.pl:80/announce282
http://tracker.tfile.me:80/announce000
http://tracker.mg64.net:6881/announce000
http://tracker.electro-torrent.pl:80/announce232
http://torrentsmd.me:8080/announce100
http://share.camoe.cn:8080/announce000
http://servandroidkino.ru:80/announce351
http://p4p.arenabg.com:1337/announce000
http://open.acgtracker.com:1096/announce000
http://omg.wtftrackr.pw:1337/announce000
http://mgtracker.org:6969/announce121420
http://bt.dl1234.com:80/announce546
http://agusiq-torrents.pl:6969/announce126
http://104.238.198.186:8000/announce172871


File List: 


Comments

No comments still posted

Powered by 10 Hamsters v2-svn -|- Page Generated In 1.798755 secs.
-|- RSS Feed -|- Feed Info
Theme By: Nikkbu