Login
Username:
Password:
[Signup]
[Recover Account]


Browse Torrents

Poll


You must be logged in to view polls



Latest Torrents
Omkara 2006 Hindi ...
- [Size: 6.25 GB]

NASCAR.Xfinity.Ser...
- [Size: 3.38 GB]

Mile.22.2018.HDCAM...
- [Size: 1.15 GB]

Ancient.Aliens.S13...
- [Size: 791.52 MB]

Ancient.Aliens.S13...
- [Size: 581.68 MB]


Torrent Details For "Miracles 1989 720p Esub BluRay Dual Audio Chinese Hindi GOPISAHI"

Miracles 1989 720p Esub BluRay Dual Audio Chinese Hindi GOPISAHI

Download this torrent | Magnet Download
Health:
Seeds: 0
Leechers: 0
Completed:
Last Checked: 14-04-2018 10:24:41
External Torrent
Update Stats



Poster


iMDB
Imdb Picture Original Title: Qi ji
Title: Miracles - Mr. Canton and Lady Rose
Year: 1989
Runtime: 139 minutes
Votes: 3709
Rating: 7.2/10
Language: Cantonese, English
Country: Hong Kong
All Genres: Action, Comedy, Crime, Drama, Romance
Plot Outline: A country boy becomes the head of a gang through the purchase of some lucky roses from an old lady. He and a singer at the gang's nightclub try to do a good deed for the old lady when her daughter comes to visit.
Tagline: "Overwhelmingly wonderful", "Nothing short of miraculous...a must see" - The Hollywood Reporter
Director: Jackie Chan
Writing By: Golden Way Creative Group,Hal Kanter,Robert Riskin,Damon Runyon,Edward Tang,Harry Tugend,
Cast:
Jackie Chan as 'Charlie' Cheng Wah Kuo
Anita Mui as Luming Yang
Ah-Lei Gua as Madam Kao
Chun Hsiung Ko as Tiger
Wu Ma as Uncle Hai
Bill Tung as Tung
Kenny Bee as Reporter #1
Anthony Carpio as One of Tiger Lo's men
Anthony Chan as Reporter #2
Ching-Wan Chan as
Trailers:
Miracles



Details
Name:Miracles 1989 720p Esub BluRay Dual Audio Chinese Hindi GOPISAHI
Description:

Format                         : Matroska
Format version                 : Version 4 / Version 2
File size                      : 618 MiB
Duration                       : 2 h 7 min
Overall bit rate               : 680 kb/s
Movie name                     : Miracles 1989 GOPISAHI

Video
Format                         : AVC
Codec ID                       : V_MPEG4/ISO/AVC
Duration                       : 2 h 7 min
Bit rate                       : 500 kb/s
Width                          : 1 280 pixels
Height                         : 542 pixels
Display aspect ratio           : 2.35:1
Frame rate mode                : Constant
Frame rate                     : 23.976 (24000/1001) FPS
Stream size                    : 454 MiB (73%)
Title                          : GOPISAHI
Writing library                : x264 core 155 r2893 b00bcaf

Audio #1
Format                         : AAC
Duration                       : 2 h 7 min
Bit rate                       : 87.2 kb/s
Channel(s)                     : 6 channels
Channel positions              : Front: L C R, Side: L R, LFE
Sampling rate                  : 44.1 kHz
Frame rate                     : 43.066 FPS (1024 SPF)
Compression mode               : Lossy
Stream size                    : 79.2 MiB (13%)
Title                          : GOPISAHI
Language                       : Chinese

Audio #2
Format                         : AAC
Duration                       : 2 h 7 min
Bit rate                       : 90.2 kb/s
Channel(s)                     : 6 channels
Channel positions              : Front: L C R, Side: L R, LFE
Sampling rate                  : 44.1 kHz
Frame rate                     : 43.066 FPS (1024 SPF)
Compression mode               : Lossy
Stream size                    : 82.0 MiB (13%)
Title                          : GOPISAHI
Language                       : Hindi

Text
Language                       : English


Category:Movies > Hollywood Dub
Lang:Hindi
Total Size:618.38 MB
Info Hash:87c6feb9e3933b416b3f91fe6cc7a9cbf3d82942
Added By:gopisahi
Date Added:14-04-2018 10:24:41
Downloads:179

Ratings:Not Yet Rated (Log in to rate it)


Tracker:
udp://9.rarbg.com:2740/announce


File List: 


Comments

No comments still posted

Copyright 2018 Hon3yHD -|- Page Generated In 0.738967 secs.
-|- RSS Feed -|- Feed Info