Login
Username:
Password:
[Signup]
[Recover Account]


Browse Torrents

Poll


You must be logged in to view polls



Latest Torrents
DuckTales.2017.S01...
- [Size: 349.92 MB]

Mile 22 2018 720p ...
- [Size: 1.32 GB]

Omkara 2006 Hindi ...
- [Size: 6.25 GB]

NASCAR.Xfinity.Ser...
- [Size: 3.38 GB]

Mile.22.2018.HDCAM...
- [Size: 1.15 GB]


Torrent Details For "Den of Thieves 2018 UNRATED 720p BRRip x264 ESub [MW]"

Den of Thieves 2018 UNRATED 720p BRRip x264 ESub [MW]

Download this torrent | Magnet Download
Health:
Seeds: 236
Leechers: 203
Completed: 153 
Last Checked: 14-04-2018 11:46:26
External Torrent
Update Stats



Poster
No poster



Details
Name:Den of Thieves 2018 UNRATED 720p BRRip x264 ESub [MW]
Description:

 


General
Format                                   : Matroska
Format version                           : Version 4 / Version 2
File size                                : 1.24 GiB
Duration                                 : 2 h 28 min
Overall bit rate                         : 1 194 kb/s

Video
ID                                       : 1
Format                                   : AVC
Format/Info                              : Advanced Video Codec
Format profile                           : [email protected]
Format settings                          : CABAC / 4 Ref Frames
Format settings, CABAC                   : Yes
Format settings, RefFrames               : 4 frames
Codec ID                                 : V_MPEG4/ISO/AVC
Duration                                 : 2 h 28 min
Bit rate                                 : 1 100 kb/s
Width                                    : 1 280 pixels
Height                                   : 534 pixels
Display aspect ratio                     : 2.40:1
Frame rate mode                          : Constant
Frame rate                               : 23.976 (24000/1001) FPS
Color space                              : YUV
Chroma subsampling                       : 4:2:0
Bit depth                                : 8 bits
Scan type                                : Progressive
Bits/(Pixel*Frame)                       : 0.067
Stream size                              : 1.14 GiB (92%)
Writing library                          : x264 core 155 r2893 b00bcaf
Default                                  : Yes
Forced                                   : No

Audio
ID                                       : 2
Format                                   : AAC
Format/Info                              : Advanced Audio Codec
Format profile                           : HE-AAC / LC
Format settings                          : Explicit
Codec ID                                 : A_AAC-2
Duration                                 : 2 h 28 min
Bit rate                                 : 96.0 kb/s
Channel(s)                               : 2 channels
Channel positions                        : Front: L R
Sampling rate                            : 48.0 kHz / 24.0 kHz
Frame rate                               : 23.438 FPS (1024 SPF)
Compression mode                         : Lossy
Stream size                              : 101 MiB (8%)
Language                                 : English
Default                                  : Yes
Forced                                   : No

Text
ID                                       : 3
Format                                   : UTF-8
Codec ID                                 : S_TEXT/UTF8
Codec ID/Info                            : UTF-8 Plain Text
Duration                                 : 2 h 11 min
Bit rate                                 : 46 b/s
Count of elements                        : 1470
Stream size                              : 44.6 KiB (0%)
Language                                 : English
Default                                  : Yes
Forced                                   : No

Menu
00:00:00.000                             : en:00:00:00.000
00:09:39.204                             : en:00:09:38.870
00:17:32.134                             : en:00:17:31.968
00:24:03.734                             : en:00:24:03.734
00:30:30.454                             : en:00:30:30.412
00:43:48.084                             : en:00:43:48.084
00:49:54.992                             : en:00:49:54.992
00:58:58.452                             : en:00:58:58.285
01:05:05.110                             : en:01:05:05.109
01:10:42.780                             : en:01:10:42.780
01:16:21.035                             : en:01:16:20.993
01:25:11.481                             : en:01:25:11.481
01:29:54.514                             : en:01:29:54.514
01:35:50.870                             : en:01:35:50.870
01:40:39.992                             : en:01:40:39.909
01:50:22.533                             : en:01:50:22.532
01:58:30.729                             : en:01:58:30.728
02:04:59.909                             : en:02:04:59.909
02:14:28.227                             : en:02:14:28.018
02:22:15.360                             : en:02:22:15.318




           

Category:Movies > 720P Bluray
Lang:English  English
Total Size:1.24 GB
Info Hash:83d4131b4ae9ce19be2a390d155e64a42f579de4
Added By:Freaky
Date Added:14-04-2018 11:46:05
Downloads:126

Ratings:Not Yet Rated (Log in to rate it)


Tracker:
udp://tracker.pirateparty.gr:6969/announce

This Torrent also has backup trackers
URLSeedersLeechersCompleted
http://tracker.vanitycore.co:6969/announce121114
http://public.popcorn-tracker.org:6969/announce10148


File List: 


Comments

No comments still posted

Copyright 2018 Hon3yHD -|- Page Generated In 1.367139 secs.
-|- RSS Feed -|- Feed Info