Login
Username:
Password:
[Signup]
[Recover Account]


Browse Torrents

Poll


You must be logged in to view polls



Latest Torrents
Sonu Ke Titu Ki Sw...
- [Size: 1.26 GB]

Live.PD.S02E49.WEB...
- [Size: 1.77 GB]

gopisahi.bid Annab...
- [Size: 445.46 MB]

Microsoft Windows ...
- [Size: 3.19 MB]

Malwarebytes Premi...
- [Size: 69.35 MB]


Torrent Details For "Saajan (1991) DVDRip 720p Hindi H.264 ACC - LatestHDMovies"

Saajan (1991) DVDRip 720p Hindi H.264 ACC - LatestHDMovies

Download this torrent | Magnet Download
Health:
Seeds: 67
Leechers: 42
Completed: 1,712 
Last Checked: 21-04-2018 15:34:21
External Torrent
Update Stats


Watch-Free-HD     Download

Poster


iMDB
Imdb Picture Title: Saajan
Year: 1991
Runtime: 181 minutes
Votes: 4808
Rating: 7.3/10
Language: Hindi
Country: India
All Genres: Drama, Musical, Romance
Plot Outline: Aman (Sanjay Dutt) is a poor, handicapped orphan who is befriended by wealthy Akash Verma (Salman Khan) during his childhood. Akash's parents adopt him and give him their family name, and ...
Director: Lawrence D'Souza
Writing By: Reema Rakesh Nath,Reema Rakesh Nath,Reema Rakesh Nath,
Produced By: Sudhakar Bokade,Rajendra Ghogre,
Music: Shravan Rathod Nadeem Saifi
Cast:
Sanjay Dutt as Aman Verma / Sagar
Madhuri Dixit as Pooja Saxena
Salman Khan as Akash Verma
Ekta Sohini as Menka
Laxmikant Berde as Laxmi
Kader Khan as Rajiv Verma
Reema Lagoo as Mrs. Kamla Verma
Anjana Mumtaz as Mrs. Saxena (Pooja's mom)
Dinesh Hingoo as Mr. Lalchand
Yunus Parvez as Anees Saab


Watch-Free-HD     Download

Details
Name:Saajan (1991) DVDRip 720p Hindi H.264 ACC - LatestHDMovies
Description:





[[>>SAMPLE<<]]
 https://oload.stream/f/CzJWFit...es___TeamSHAHID-.mp4







General
Unique ID                   : 240853252740486153176267166284546625395 (0xB532A62FB7708718034B062E66BCCF73)
Complete name               : C:\Users\SHAHID\Downloads\Video\Saajan (1991) DVDRip 720p Hindi H.264 ACC - LatestHDMovies.mkv
Format                      : Matroska
Format version              : Version 4 / Version 2
File size                   : 1.02 GiB
Duration                    : 3 h 15 min
Overall bit rate            : 746 kb/s
Movie name                  : LatestHDMovies | TeamSHAHID
Encoded date                : UTC 2018-04-14 02:33:33
Writing application         : mkvmerge v21.0.0 ('Tardigrades Will Inherit The Earth') 32-bit
Writing library             : libebml v1.3.5 + libmatroska v1.4.8
Cover                       : Yes
Attachments                 : Cover.jpg

Video
ID                          : 1
Format                      : AVC
Format/Info                 : Advanced Video Codec
Format profile              : [email protected]
Format settings             : CABAC / 5 Ref Frames
Format settings, CABAC      : Yes
Format settings, ReFrames   : 5 frames
Codec ID                    : V_MPEG4/ISO/AVC
Duration                    : 3 h 15 min
Bit rate                    : 640 kb/s
Width                       : 720 pixels
Height                      : 384 pixels
Display aspect ratio        : 1.85:1
Frame rate mode             : Constant
Frame rate                  : 23.976 (24000/1001) FPS
Color space                 : YUV
Chroma subsampling          : 4:2:0
Bit depth                   : 8 bits
Scan type                   : Progressive
Bits/(Pixel*Frame)          : 0.097
Stream size                 : 906 MiB (87%)
Title                       : LatestHDMovies - TeamSHAHID
Writing library             : x264 core 148 r2643 5c65704
Encoding settings           : cabac=1 / ref=5 / deblock=1:0:0 / analyse=0x3:0x113 / me=hex / subme=7 / psy=1 / psy_rd=1.00:0.00 / mixed_ref=1 / me_range=16 / chroma_me=1 / trellis=1 / 8x8dct=1 / cqm=0 / deadzone=21,11 / fast_pskip=1 / chroma_qp_offset=-2 / threads=6 / lookahead_threads=6 / sliced_threads=1 / slices=6 / nr=0 / decimate=1 / interlaced=0 / bluray_compat=0 / constrained_intra=0 / bframes=0 / weightp=2 / keyint=250 / keyint_min=23 / scenecut=40 / intra_refresh=0 / rc=abr / mbtree=0 / bitrate=640 / ratetol=1.0 / qcomp=0.60 / qpmin=0 / qpmax=69 / qpstep=4 / ip_ratio=1.40 / aq=1:1.00
Default                     : Yes
Forced                      : No

Audio
ID                          : 2
Format                      : AAC
Format/Info                 : Advanced Audio Codec
Format profile              : LC
Codec ID                    : A_AAC-2
Duration                    : 3 h 15 min
Bit rate                    : 96.0 kb/s
Channel(s)                  : 2 channels
Channel positions           : Front: L R
Sampling rate               : 48.0 kHz
Frame rate                  : 46.875 FPS (1024 SPF)
Compression mode            : Lossy
Delay relative to video     : -21 ms
Stream size                 : 134 MiB (13%)
Title                       : LatestHDMovies - TeamSHAHID
Language                    : Hindi
Default                     : Yes
Forced                      : No



 
           
Category:Movies > Bollywood
Lang:Hindi
Total Size:1.02 GB
Info Hash:899058c4a323d64e8e3cb53ac2c0c1490402f2ab
Added By:LatestHDMovies
Date Added:16-04-2018 02:36:14
Downloads:244

Download Torrent

Ratings:Not Yet Rated (Log in to rate it)


Tracker:
udp://tracker.openbittorrent.com:80/announce


File List: 


Comments

No comments still posted

Powered by 10 Hamsters v2-svn -|- Page Generated In 1.685809 secs.
-|- RSS Feed -|- Feed Info
Theme By: Nikkbu