Login
Username:
Password:
[Signup]
[Recover Account]


Browse Torrents

Poll


You must be logged in to view polls



Latest Torrents
Sonu Ke Titu Ki Sw...
- [Size: 1.26 GB]

Live.PD.S02E49.WEB...
- [Size: 1.77 GB]

gopisahi.bid Annab...
- [Size: 445.46 MB]

Microsoft Windows ...
- [Size: 3.19 MB]

Malwarebytes Premi...
- [Size: 69.35 MB]


Torrent Details For "Dil Hai Tumhaara (2002) Movie 720p AVC HDrip 5.1-DD(org) Audio-(Suman142)"

Dil Hai Tumhaara (2002) Movie 720p AVC HDrip 5.1-DD(org) Audio-(Suman142)

Download this torrent | Magnet Download
Health:
Seeds: 20
Leechers: 76
Completed:
Last Checked: 18-04-2018 11:57:41
External Torrent
Update Stats


Watch-Free-HD     Download

Poster


iMDB
Imdb Picture Title: Dil Hai Tumhaara
Year: 2002
Runtime: 185 minutes
Votes: 1321
Rating: 5.3/10
Language: Hindi
Country: India
All Genres: Drama, Romance
Plot Outline: A fiesty girl falls in love with her employer's son.
Director: Kundan Shah
Writing By: Rajkumar Santoshi,Rajkumar Santoshi,Kundan Shah,Subrat Sinha,
Produced By: Kumar Sadhuram Taurani,Ramesh Sadhuram Taurani,Renu Taurani,Varsha Taurani,
Music: Shravan Rathod Nadeem Saifi Surendra Singh Sodhi
Cast:
Arjun Rampal as Dev Khanna
Preity Zinta as Shalu
Mahima Chaudhry as Nimmi
Jimmy Shergill as Samir
Rekha as Saritaji
Alok Nath as Mr. Khanna
Dilip Joshi as Factory CEO
Vivek Shaq as Factory CEO
Anjan Srivastav as Roopchand
Govind Namdeo as Mr. Mittal


Watch-Free-HD     Download

Details
Name:Dil Hai Tumhaara (2002) Movie 720p AVC HDrip 5.1-DD(org) Audio-(Suman142)
Description:



General
Complete name                            : Dil Hai Tumhaara (2002) Movie 720p AVC HDrip 5.1-DD(org) Audio-(Suman142).mp4
Format                                   : dash
Codec ID                                 : dash (iso6/mp41)
File size                                : 2.60 GiB
Duration                                 : 2 h 56 min
Overall bit rate                         : 2 109 kb/s
Encoded date                             : UTC 2018-04-09 21:28:11
Tagged date                              : UTC 2018-04-09 21:28:11

Video
ID                                       : 2
Format                                   : AVC
Format/Info                              : Advanced Video Codec
Format profile                           : [email protected]
Format settings                          : 1 Ref Frames
Format settings, CABAC                   : No
Format settings, RefFrames               : 1 frame
Format settings, GOP                     : M=1, N=13
Codec ID                                 : avc1
Codec ID/Info                            : Advanced Video Coding
Duration                                 : 2 h 56 min
Bit rate                                 : 1 914 kb/s
Width                                    : 1 280 pixels
Height                                   : 720 pixels
Display aspect ratio                     : 16:9
Frame rate mode                          : Constant
Frame rate                               : 25.000 FPS
Color space                              : YUV
Chroma subsampling                       : 4:2:0
Bit depth                                : 8 bits
Scan type                                : Progressive
Bits/(Pixel*Frame)                       : 0.083
Stream size                              : 2.36 GiB (91%)
Encoded date                             : UTC 2018-04-09 21:28:11
Tagged date                              : UTC 2018-04-09 21:28:11

Audio
ID                                       : 1
Format                                   : E-AC-3
Format/Info                              : Enhanced Audio Coding 3
Codec ID                                 : ec-3
Duration                                 : 2 h 56 min
Bit rate mode                            : Constant
Bit rate                                 : 192 kb/s
Channel(s)                               : 6 channels
Channel positions                        : Front: L C R, Side: L R, LFE
Sampling rate                            : 48.0 kHz
Frame rate                               : 187.500 FPS (256 SPF)
Bit depth                                : 16 bits
Compression mode                         : Lossy
Stream size                              : 242 MiB (9%)
Service kind                             : Complete Main
Encoded date                             : UTC 2018-04-09 21:28:11
Tagged date                              : UTC 2018-04-09 21:28:11













Category:Movies > Bollywood
Lang:Hindi
Total Size:2.60 GB
Info Hash:fde940abaab02d1833fe7d2356f11849c3a84b92
Added By:suman142
Date Added:16-04-2018 05:13:01
Downloads:315

Download Torrent

Ratings:Not Yet Rated (Log in to rate it)


Tracker:
udp://tracker.coppersurfer.tk:6969/announce


File List: 


Comments

No comments still posted

Powered by 10 Hamsters v2-svn -|- Page Generated In 2.016157 secs.
-|- RSS Feed -|- Feed Info
Theme By: Nikkbu