Login
Username:
Password:
[Signup]
[Recover Account]


Browse Torrents

Poll


You must be logged in to view polls



Latest Torrents
DuckTales.2017.S01...
- [Size: 349.92 MB]

Mile 22 2018 720p ...
- [Size: 1.32 GB]

Omkara 2006 Hindi ...
- [Size: 6.25 GB]

NASCAR.Xfinity.Ser...
- [Size: 3.38 GB]

Mile.22.2018.HDCAM...
- [Size: 1.15 GB]


Torrent Details For "Missing 2018 Pre DVD Hindi GOPISAHI"

Missing 2018 Pre DVD Hindi GOPISAHI

Download this torrent | Magnet Download
Health:
Seeds: 0
Leechers: 0
Completed:
Last Checked: 16-04-2018 06:36:43
External Torrent
Update Stats



Poster


iMDB
Imdb Picture Title: Missing
Year: 2018
Runtime: 120 minutes
Votes: 59
Rating: 7.7/10
Language: Hindi
Country: India
All Genres: Drama, Thriller
Plot Outline: Sushant Dubey checks in at a beach resort of Mauritius late night with his lovely wife Aparna and three-year-old daughter, Titli, who has high fever. As Aparna wakes up the next morning, ...
Director: Mukul Abhyankar
Writing By: Mukul Abhyankar,
Produced By: Manoj Bajpayee,Shabana Raza Bajpayee,Shital Bhatia,Vikram Malhotra,Neeraj Pandey,Anand Pandit,
Music: M.M. Keeravani
Cast:
Manoj Bajpayee as Mr. Dubey
Shruti Gupta as Receptionist
Annu Kapoor as Inspector Buddhu
Tabu as Mrs. Dubey



Details
Name:Missing 2018 Pre DVD Hindi GOPISAHI
Description:

Format                         : Matroska
Format version                 : Version 4 / Version 2
File size                      : 277 MiB
Duration                       : 1 h 47 min
Overall bit rate               : 359 kb/s
Movie name                     : Missing 2018 GOPISAHI

Video
Format                         : AVC
Codec ID                       : V_MPEG4/ISO/AVC
Duration                       : 1 h 47 min
Bit rate                       : 300 kb/s
Width                          : 622 pixels
Height                         : 272 pixels
Display aspect ratio           : 2.25:1
Frame rate mode                : Constant
Frame rate                     : 25.000 FPS
Color space                    : YUV
Chroma subsampling             : 4:2:0
Bit depth                      : 8 bits
Scan type                      : Progressive
Bits/(Pixel*Frame)             : 0.071
Stream size                    : 231 MiB (84%)
Title                          : GOPISAHI
Writing library                : x264 core 155 r2893 b00bcaf

Audio
Format                         : AAC
Duration                       : 1 h 47 min
Bit rate                       : 56.5 kb/s
Channel(s)                     : 2 channels
Channel positions              : Front: L R
Sampling rate                  : 44.1 kHz
Frame rate                     : 43.066 FPS (1024 SPF)
Compression mode               : Lossy
Stream size                    : 43.6 MiB (16%)
Title                          : GOPISAHI
Language                       : Hindi
dkcrHaHwmITxqQVcQCLcBGAs/s1600/Missing%2B2018%2BPre%2BDVD%2BHindi%2BGOPISAHI.mkv_thumbs.jpg" onclick="return false;">dkcrHaHwmITxqQVcQCLcBGAs/s1600/Missing%2B2018%2BPre%2BDVD%2BHindi%2BGOPISAHI.mkv_thumbs.jpg" class="resized" style="width:65em;height:auto;" />



Category:Movies > Bollywood
Lang:Hindi
Total Size:276.62 MB
Info Hash:1b0920bc9d3c136f20bca7359246c50671c9b0ab
Added By:gopisahi
Date Added:16-04-2018 06:36:43
Downloads:550

Ratings:Not Yet Rated (Log in to rate it)


Tracker:
udp://9.rarbg.com:2740/announce


File List: 


Comments

No comments still posted

Copyright 2018 Hon3yHD -|- Page Generated In 0.651444 secs.
-|- RSS Feed -|- Feed Info