Login
Username:
Password:
[Signup]
[Recover Account]


Browse Torrents

Poll


You must be logged in to view polls



Latest Torrents
IObit Uninstaller ...
- [Size: 14.50 MB]

InPixio Photo Clip...
- [Size: 254.63 MB]

InPixio Photo Clip...
- [Size: 253.01 MB]

HomeGuard Professi...
- [Size: 44.97 MB]

Glary Utilities Pr...
- [Size: 16.79 MB]


Torrent Details For "18+.RED.SPARROW.2018.720p.HC.HDRip.AC3.LLG"

18+.RED.SPARROW.2018.720p.HC.HDRip.AC3.LLG

Download this torrent | Magnet Download
Health:
Seeds: 0
Leechers: 0
Completed:
Last Checked: 16-04-2018 12:20:13
External Torrent
Update Stats


Watch-Free-HD     Download

Poster
No poster


iMDB
Imdb Picture Title: Red Sparrow
Year: 2018
Runtime: 139 minutes
Votes: 5470
Rating: 6.5/10
Language: English, Russian
Country: USA
All Genres: Mystery, Thriller
Plot Outline: Ballerina Dominika Egorova is recruited to 'Sparrow School,' a Russian intelligence service where she is forced to use her body as a weapon. Her first mission, targeting a C.I.A. agent, threatens to unravel the security of both nations.
Tagline: Seductive. Deceptive. Deadly.
Director: Francis Lawrence
Writing By: Justin Haythe,Jason Matthews,
Produced By: Garrett Basch,Peter Chernin,Ildiko Kemeny,Cameron MacConomy,Mary McLaglen,David Minkowski,David Ready,Jenno Topping,Steven Zaillian,
Music: James Newton Howard
Cast:
Jennifer Lawrence as Dominika Egorova
Joel Edgerton as Nate Nash
Matthias Schoenaerts as Vanya Egorov
Charlotte Rampling as Matron
Mary-Louise Parker as Stephanie Boucher
CiarĂ¡n Hinds as Zakharov
Joely Richardson as Nina Egorova
Bill Camp as Marty Gable
Jeremy Irons as General Korchnoi
Thekla Reuten as Marta
Trailers:
Official Trailer
Official Trailer


Watch-Free-HD     Download

Details
Name:18+.RED.SPARROW.2018.720p.HC.HDRip.AC3.LLG
Description:




******************************Thumbnail:**********************

 

******************************Screenshots:********************

 Screenshot 1

 Screenshot 2

 Screenshot 3

 Screenshot 4

 Screenshot 5

 Screenshot 6

 Screenshot 7

 Screenshot 8

 Screenshot 9

 Screenshot 0

**************************************************************

Complete name                            : 18+.RED.SPARROW.2018.720p.HC.HDRip.AC3.LLG.mp4
Format                                   : MPEG-4
Format profile                           : Base Media
Codec ID                                 : isom (isom/iso2/avc1/mp41)
File size                                : 1.09 GiB
Duration                                 : 2 h 15 min
Overall bit rate                         : 1 148 kb/s
Writing application                      : Lavf57.56.101

Video
ID                                       : 1
Format                                   : AVC
Format/Info                              : Advanced Video Codec
Format profile                           : [email protected]
Format settings                          : CABAC / 4 Ref Frames
Format settings, CABAC                   : Yes
Format settings, RefFrames               : 4 frames
Codec ID                                 : avc1
Codec ID/Info                            : Advanced Video Coding
Duration                                 : 2 h 15 min
Bit rate                                 : 900 kb/s
Width                                    : 1 280 pixels
Height                                   : 720 pixels
Display aspect ratio                     : 2.40:1
Original display aspect ratio            : 2.40:1
Frame rate mode                          : Constant
Frame rate                               : 29.970 (29970/1000) FPS
Color space                              : YUV
Chroma subsampling                       : 4:2:0
Bit depth                                : 8 bits
Scan type                                : Progressive
Bits/(Pixel*Frame)                       : 0.033
Stream size                              : 861 MiB (77%)

Audio
ID                                       : 2
Format                                   : AC-3
Format/Info                              : Audio Coding 3
Codec ID                                 : ac-3
Duration                                 : 2 h 15 min
Bit rate mode                            : Constant
Bit rate                                 : 256 kb/s
Channel(s)                               : 2 channels
Channel positions                        : Front: L R
Sampling rate                            : 48.0 kHz
Frame rate                               : 31.250 FPS (1536 SPF)
Bit depth                                : 16 bits
Compression mode                         : Lossy
Stream size                              : 249 MiB (22%)
Language                                 : English
Service kind                             : Complete Main
Default                                  : Yes
Alternate group                          : 1

Category:Movies > HDRips
Lang:English  English
Total Size:1.12 GB
Info Hash:d49e2bd0cd151245d46299f9992faae609589397
Added By:LifeLongg
Date Added:16-04-2018 12:20:13
Downloads:140

Download Torrent

Ratings:Not Yet Rated (Log in to rate it)


Tracker:
udp://tracker.openbittorrent.com:80/announce


File List: 


Comments

No comments still posted

Powered by 10 Hamsters v2-svn -|- Page Generated In 1.533323 secs.
-|- RSS Feed -|- Feed Info
Theme By: Nikkbu