Login
Username:
Password:
[Signup]
[Recover Account]


Browse Torrents

Poll


You must be logged in to view polls



Latest Torrents
[18+] Palm Swings ...
- [Size: 2.56 GB]

The Real Tevar - S...
- [Size: 1.21 GB]

Off.the.Map.2018.S...
- [Size: 1.08 GB]

Direct Ishq 2016 H...
- [Size: 982.48 MB]

The Miracle Season...
- [Size: 1.38 GB]


Torrent Details For "Jaan (1996) DVDRip 576p Hindi H.264 ACC - LatestHDMovies"

Jaan (1996) DVDRip 576p Hindi H.264 ACC - LatestHDMovies

Download this torrent | Magnet Download
Health:
Seeds: 1
Leechers: 35
Completed: 983 
Last Checked: 27-04-2018 11:21:03
External Torrent
Update Stats


Watch-Free-HD     Download

Poster


iMDB
Imdb Picture Title: Jaan
Year: 1996
Runtime: 170 minutes
Votes: 406
Rating: 4.0/10
Language: Hindi
Country: India
All Genres: Action, Romance
Plot Outline: Police Commisioner Suryadev Singh appoints Karan as Kajal's bodyguard as she is facing danger from Vishamber. But the truth is, Karan is Vishamber's man who is sent to kill Kajal.
Director: Raj Kanwar
Writing By: Kamlesh Pandey,Ranbir Pushp,
Produced By: Ashok Ghai,
Music: Anand Chitragupth Milind Chitragupth Amar Mohile Anil Mohile
Cast:
Ajay Devgn as Karan
Twinkle Khanna as Kajal
Amrish Puri as Police Commisioner Suryadev Singh
Rakhee Gulzar as Rukmini
Vivek Mushran as Rohit
Suresh Oberoi as Vishamber
Shakti Kapoor as Banwari
Bindu as Rajrani
Saeed Jaffrey as Roshanlalji
Aruna Irani as Karan's mother


Watch-Free-HD     Download

Details
Name:Jaan (1996) DVDRip 576p Hindi H.264 ACC - LatestHDMovies
Description:




[[>>SAMPLE<<]]
 https://openload.co/f/PNuObA3o...es___TeamSHAHID-.avi







General
Unique ID                   : 183945743043124115213968822289915960212 (0x8A62A955E5953C0E3D621AA954FFDB94)
Complete name               : C:\Users\SHAHID\Downloads\Video\Jaan (1996) DVDRip 576p Hindi H.264 ACC - LatestHDMovies.mkv
Format                      : Matroska
Format version              : Version 4 / Version 2
File size                   : 1.35 GiB
Duration                    : 2 h 49 min
Overall bit rate            : 1 142 kb/s
Movie name                  : LatestHDMovies | TeamSHAHID
Encoded date                : UTC 2018-04-16 14:46:00
Writing application         : mkvmerge v21.0.0 ('Tardigrades Will Inherit The Earth') 32-bit
Writing library             : libebml v1.3.5 + libmatroska v1.4.8
Cover                       : Yes
Attachments                 : Cover.jpg

Video
ID                          : 1
Format                      : MPEG-4 Visual
Format profile              : Advanced [email protected]
Format settings             : BVOP2
Format settings, BVOP       : 2
Format settings, QPel       : No
Format settings, GMC        : No warppoints
Format settings, Matrix     : Default (H.263)
Codec ID                    : V_MS/VFW/FOURCC / XVID
Codec ID/Hint               : XviD
Duration                    : 2 h 49 min
Bit rate                    : 1 012 kb/s
Width                       : 576 pixels
Height                      : 256 pixels
Display aspect ratio        : 2.25:1
Frame rate mode             : Constant
Frame rate                  : 29.970 (30000/1001) FPS
Color space                 : YUV
Chroma subsampling          : 4:2:0
Bit depth                   : 8 bits
Scan type                   : Progressive
Compression mode            : Lossy
Bits/(Pixel*Frame)          : 0.229
Stream size                 : 1.20 GiB (89%)
Title                       : LatestHDMovies - TeamSHAHID
Writing library             : XviD 1.2.1 (UTC 2008-12-04)
Default                     : Yes
Forced                      : No

Audio
ID                          : 2
Format                      : AC-3
Format/Info                 : Audio Coding 3
Codec ID                    : A_AC3
Duration                    : 2 h 49 min
Bit rate mode               : Constant
Bit rate                    : 128 kb/s
Channel(s)                  : 6 channels
Channel positions           : Front: L C R, Side: L R, LFE
Sampling rate               : 48.0 kHz
Frame rate                  : 31.250 FPS (1536 SPF)
Bit depth                   : 16 bits
Compression mode            : Lossy
Stream size                 : 155 MiB (11%)
Title                       : LatestHDMovies - TeamSHAHID
Language                    : Hindi
Service kind                : Complete Main
Default                     : Yes
Forced                      : No



 
              
Category:Movies > Bollywood
Lang:Hindi
Total Size:1.35 GB
Info Hash:a8fed9d2c52731e060a90d265b61497627cf6056
Added By:LatestHDMovies
Date Added:16-04-2018 15:52:49
Downloads:338

Download Torrent

Ratings:Not Yet Rated (Log in to rate it)


Tracker:
udp://tracker.openbittorrent.com:80/announce


File List: 


Comments

<< Previous      Next >>
1 - 1

[Report] Posted: 23-04-2018 at 11:48:44
wiki



Uploaded: 0.00 B
Downloaded: 0.00 B
Ratio: ---

:love  :P

1 - 1
<< Previous      Next >>


Powered by 10 Hamsters v2-svn -|- Page Generated In 2.593579 secs.
-|- RSS Feed -|- Feed Info
Theme By: Nikkbu