Login
Username:
Password:
[Signup]
[Recover Account]


Browse Torrents

Poll


You must be logged in to view polls



Latest Torrents
[18+] Palm Swings ...
- [Size: 2.56 GB]

The Real Tevar - S...
- [Size: 1.21 GB]

Off.the.Map.2018.S...
- [Size: 1.08 GB]

Direct Ishq 2016 H...
- [Size: 982.48 MB]

The Miracle Season...
- [Size: 1.38 GB]


Torrent Details For "18+.Wildling.2018.HDRip.XviD.AC3.With.Sample.LLG"

18+.Wildling.2018.HDRip.XviD.AC3.With.Sample.LLG

Download this torrent | Magnet Download
Health:
Seeds: 0
Leechers: 0
Completed:
Last Checked: 16-04-2018 16:08:54
External Torrent
Update Stats


Watch-Free-HD     Download

Poster
No poster


iMDB
Imdb Picture Title: Wildling
Year: 2018
Runtime: 92 minutes
Votes: 608
Rating: 8.3/10
Language: English
Country: USA
All Genres: Fantasy, Horror
Plot Outline: A blossoming teenager uncovers the dark secret behind her traumatic childhood.
Director: Fritz Böhm
Writing By: Fritz Böhm,Florian Eder,
Produced By: Soeren Bauermeister,Christopher S Burke,Rab Butler,Timothy Christian,Tomas Eskilsson,Marco Henry,Ken Hirsh,Hardy Justice,William Kay,Steven Kemler,Michael Liebman,Stephen Mao,Nic Marshall,Sven Nuri,David Palmer,Celine Rattray,Lee Stobby,Trudie Styler,Kiri Kristin Trier,Liv Tyler,Charlotte Ubben,Sean Wheelan,
Music: Paul Haslinger
Cast:
Liv Tyler as Ellen Cooper
Brad Dourif as Daddy
Bel Powley as Anna
James Le Gros as The Wolf Man
Mike Faist as Lawrence
Troy Ruptash as Roger Fowler
Bhavesh Patel as Doctor
Frank Deal as Dr. Rooney
Kelly Lamor Wilson as Teenage Girl #2
Brian Donahue as Hunter #2
Trailers:
Official Trailer


Watch-Free-HD     Download

Details
Name:18+.Wildling.2018.HDRip.XviD.AC3.With.Sample.LLG
Description:




******************************Thumbnail:**********************

 

******************************Screenshots:********************

 Screenshot 1

 Screenshot 2

 Screenshot 3

 Screenshot 4

 Screenshot 5

 Screenshot 6

 Screenshot 7

 Screenshot 8

 Screenshot 9

 Screenshot 0

**************************************************************

Complete name                            : 18+.Wildling.2018.HDRip.XviD.AC3.With.Sample.LLG.mp4
Format                                   : MPEG-4
Format profile                           : Base Media
Codec ID                                 : isom (isom/iso2/avc1/mp41)
File size                                : 961 MiB
Duration                                 : 1 h 32 min
Overall bit rate                         : 1 452 kb/s
Writing application                      : Lavf57.56.101

Video
ID                                       : 1
Format                                   : AVC
Format/Info                              : Advanced Video Codec
Format profile                           : [email protected]
Format settings                          : CABAC / 4 Ref Frames
Format settings, CABAC                   : Yes
Format settings, RefFrames               : 4 frames
Codec ID                                 : avc1
Codec ID/Info                            : Advanced Video Coding
Duration                                 : 1 h 32 min
Bit rate                                 : 1 200 kb/s
Width                                    : 720 pixels
Height                                   : 304 pixels
Display aspect ratio                     : 2.35:1
Frame rate mode                          : Constant
Frame rate                               : 23.976 (23976/1000) FPS
Color space                              : YUV
Chroma subsampling                       : 4:2:0
Bit depth                                : 8 bits
Scan type                                : Progressive
Bits/(Pixel*Frame)                       : 0.229
Stream size                              : 788 MiB (82%)

Audio
ID                                       : 2
Format                                   : AC-3
Format/Info                              : Audio Coding 3
Codec ID                                 : ac-3
Duration                                 : 1 h 32 min
Bit rate mode                            : Constant
Bit rate                                 : 256 kb/s
Channel(s)                               : 6 channels
Channel positions                        : Front: L C R, Side: L R, LFE
Sampling rate                            : 48.0 kHz
Frame rate                               : 31.250 FPS (1536 SPF)
Bit depth                                : 16 bits
Compression mode                         : Lossy
Stream size                              : 169 MiB (18%)
Service kind                             : Complete Main
Default                                  : Yes
Alternate group                          : 1

Category:Movies > HDRips
Lang:English  English
Total Size:993.70 MB
Info Hash:a44860ed5791f98582d31a952a14f92c2b39a478
Added By:LifeLongg
Date Added:16-04-2018 16:08:54
Downloads:182

Download Torrent

Ratings:Not Yet Rated (Log in to rate it)


Tracker:
udp://tracker.openbittorrent.com:80/announce


File List: 


Comments

No comments still posted

Powered by 10 Hamsters v2-svn -|- Page Generated In 0.573751 secs.
-|- RSS Feed -|- Feed Info
Theme By: Nikkbu